<?xml version="1.0" standalone="no"?>
<!DOCTYPE svg PUBLIC "-//W3C//DTD SVG 1.1//EN" "http://www.w3.org/Graphics/SVG/1.1/DTD/svg11.dtd" >
<svg xmlns="http://www.w3.org/2000/svg">
  <metadata>Created by iconfont</metadata>
  <defs>
  <font id="iconfont" horiz-adv-x="1024">
    <font-face
      font-family="iconfont"
      font-weight="400"
      font-stretch="normal"
      units-per-em="1024"
      ascent="896"
      descent="-128"
    />
      <missing-glyph />
      
      <glyph glyph-name="wodeqianbao" unicode="&#58996;" d="M156.48 659.968h93.632l493.696 160.256a110.592 110.592 0 0 0 139.712-72.96l27.072-89.792A148.352 148.352 0 0 0 1032.128 512v-421.312a148.352 148.352 0 0 0-148.16-148.224H156.352a148.352 148.352 0 0 0-148.224 148.224v421.12a148.48 148.48 0 0 0 148.352 148.16zM816.64 727.04a40.832 40.832 0 0 1-51.264 26.752L476.352 659.968h360.576L816.64 727.04zM156.48 12.032h727.552a78.464 78.464 0 0 1 78.272 78.4V511.744a78.528 78.528 0 0 1-78.336 78.4H156.352A78.528 78.528 0 0 1 78.08 511.744v-48.64h221.824a160.896 160.896 0 1 0 0-321.792H78.08v-50.88a78.464 78.464 0 0 1 78.4-78.4zM78.08 211.2h221.824a91.072 91.072 0 0 1 0 182.016H78.08V211.2zM338.752 302.208a44.416 44.416 0 1 0-88.832 0 44.416 44.416 0 0 0 88.832 0z"  horiz-adv-x="1088" />
      
      <glyph glyph-name="dingdanzhongxin" unicode="&#58997;" d="M296.128 543.744h448a32 32 0 0 1 0 64h-448a32 32 0 0 1 0-64z m448-127.488h-448a32 32 0 0 1 0-64h448a32 32 0 0 1 0 64z m0-192h-448a32 32 0 0 1 0-64h448a32 32 0 0 1 0 64zM426.816 736h160a48 48 0 1 1 0 96h-160a48 48 0 0 1 0-96z m413.312 64h-32a32 32 0 0 1 0-64h32c35.264 0 64-28.736 64-64V64c0-35.328-28.736-64-64-64h-640c-35.328 0-64 28.672-64 64V672c0 35.264 28.672 64 64 64h32a32 32 0 0 1 0 64h-32a128 128 0 0 1-128-128V64a128 128 0 0 1 128-128h640a128 128 0 0 1 128 128V672a128 128 0 0 1-128 128z"  horiz-adv-x="1088" />
      
      <glyph glyph-name="zhanghuanquan" unicode="&#58998;" d="M815.232 555.648h-26.24a35.2 35.2 0 0 1 0.128 3.008l0.576 57.216c-0.576 128-76.8 230.72-194.304 261.632A286.656 286.656 0 0 1 521.216 886.72c-74.88-0.384-142.72-28.992-191.04-80.704-47.104-50.304-72.832-118.72-72.448-192.448l-2.176-57.152 2.816-0.768h-35.2c-74.176 0-134.4-60.288-134.4-134.4v-394.752c0-74.112 60.224-134.4 134.4-134.4h592.064c74.112 0 134.4 60.288 134.4 134.4V421.248c0 74.112-60.288 134.4-134.4 134.4zM521.6 815.232c19.008 0.064 37.568-2.24 55.04-6.848 85.568-22.464 141.12-98.176 141.568-192.768l-0.576-57.28c0-0.896 0-1.792 0.128-2.688H326.976l2.24 58.112C328.64 729.984 409.6 814.72 521.6 815.232z m356.608-788.736a63.04 63.04 0 0 0-62.976-62.912H223.168a63.04 63.04 0 0 0-62.976 62.912V421.248c0 34.688 28.224 62.912 62.976 62.912h592.064c34.688 0 62.976-28.16 62.976-62.912v-394.752z m-359.04 331.776a68.736 68.736 0 0 1-35.712-127.168v-105.92a35.776 35.776 0 0 1 71.488 0v105.92a68.736 68.736 0 0 1-35.712 127.232z"  horiz-adv-x="1088" />
      
      <glyph glyph-name="shimingrenzheng" unicode="&#58994;" d="M872.128 800h-704c-88.256 0-160-77.76-160-173.312v-485.376c0-95.552 71.744-173.312 160-173.312h704c88.192 0 160 77.76 160 173.312V626.688c0 95.552-71.744 173.312-160 173.312z m96-658.688c0-57.344-43.072-104-96-104h-704c-52.928 0-96 46.72-96 104V626.688c0 57.344 43.072 104 96 104h704c52.928 0 96-46.72 96-104v-485.376zM392.128 576h-224a32 32 0 0 1 0-64h224a32 32 0 0 1 0 64zM392.128 416h-224a32 32 0 0 1 0-64h224a32 32 0 0 1 0 64zM392.128 256h-224a32 32 0 0 1 0-64h224a32 32 0 0 1 0 64zM816.512 368c34.56 29.376 56.96 72.576 56.96 121.344 0 88.192-71.808 160-160 160a160.192 160.192 0 0 1-160-160c0-48.768 22.4-91.968 56.96-121.344a224.064 224.064 0 0 1-120.96-198.656 32 32 0 1 1 64 0c0 88.192 71.744 160 160 160 88.192 0 160-71.808 160-160a32 32 0 1 1 64 0c0 86.336-49.216 161.28-120.96 198.656z m-103.04 25.344c-52.928 0-96 43.072-96 96s43.072 96 96 96 96-43.072 96-96-43.072-96-96-96z"  horiz-adv-x="1088" />
      
      <glyph glyph-name="wodezhanghu" unicode="&#58995;" d="M520.128 832a260.032 260.032 0 0 0 184.448-76.416 260.032 260.032 0 0 0 76.416-184.384 260.032 260.032 0 0 0-115.136-216.32 413.248 413.248 0 0 0 145.536-93.952 409.472 409.472 0 0 0 120.832-290.752 35.52 35.52 0 0 0-71.04 0 340.736 340.736 0 0 1-340.608 340.16h-0.832a340.608 340.608 0 0 1-340.672-340.16 35.52 35.52 0 0 0-71.04 0 409.6 409.6 0 0 0 120.832 290.752A412.8 412.8 0 0 0 374.4 354.88a262.208 262.208 0 0 0-95.232 116.48 260.032 260.032 0 0 0-19.84 99.84c0 72 29.248 137.152 76.416 184.384A260.032 260.032 0 0 0 520.128 832z m134.208-126.656a189.248 189.248 0 0 1-134.208 55.68c-52.416 0-99.84-21.312-134.208-55.68a189.184 189.184 0 0 1-55.616-134.144c0-52.48 21.312-99.84 55.616-134.272a189.312 189.312 0 0 1 133.76-55.552h0.832c50.24 0 98.368 20.032 133.824 55.552a189.312 189.312 0 0 1 55.616 134.272c0 52.352-21.312 99.84-55.616 134.144z"  horiz-adv-x="1088" />
      
      <glyph glyph-name="zhuti1" unicode="&#58993;" d="M896.722824 830.524235H127.096471A96.195765 96.195765 0 0 1 30.840471 734.328471v-580.427295a96.195765 96.195765 0 0 1 96.195764-96.195764h260.216471l122.940235-120.289883 122.88 120.289883h264.613647a96.256 96.256 0 0 1 96.256 96.195764V734.328471a96.195765 96.195765 0 0 1-97.219764 96.195764z m45.778823-676.623059a45.718588 45.718588 0 0 0-45.778823-45.658352H611.508706l-14.697412-14.456471-87.823059-85.594353-87.762823 85.594353-14.697412 14.456471H126.313412a45.718588 45.718588 0 0 0-45.718588 45.658352V734.328471a45.718588 45.718588 0 0 0 45.778823 45.718588h769.686588a45.718588 45.718588 0 0 0 45.658353-45.718588v-580.427295h0.722824zM762.578824 573.680941H260.818824a31.021176 31.021176 0 1 1 0-61.861647h501.76a31.021176 31.021176 0 1 1 0 61.861647zM318.223059 405.504h385.14447v-64.210824H318.223059V405.504z"  horiz-adv-x="1024" />
      
      <glyph glyph-name="kongjianmiaobian" unicode="&#58992;" d="M899.900952 669.744762l-386.096762 135.363048H512L129.462857 672.182857l-5.997714-2.438095a27.306667 27.306667 0 0 1-11.068953-22.137905v-505.61219a7.558095 7.558095 0 0 1 4.388572-6.631619l367.518476-160.914286 24.380952-10.873905 3.31581-0.633905 394.532571 172.422096a7.314286 7.314286 0 0 1 4.437334 6.631619V647.801905a27.696762 27.696762 0 0 1-11.068953 21.942857z m-49.883428-75.824762v-415.353905l-307.687619-134.777905V459.093333l307.687619 134.777905z m-49.883429 45.83619L512 513.950476 223.865905 639.804952l288.182857 98.840381 288.085333-98.840381zM481.426286 459.190857v-415.353905l-307.687619 134.777905V593.92l307.687619-134.777905z"  horiz-adv-x="1024" />
      
      <glyph glyph-name="liebiaomoshi" unicode="&#58990;" d="M383.936 416.064h-192a96 96 0 0 0-95.968 96V704.032a96 96 0 0 0 96 96h191.968a96 96 0 0 0 95.968-96v-191.968a96 96 0 0 0-96-96z m-192 319.968c-17.536 0-32-14.464-32-32v-191.968c0-17.536 14.464-32 32-32h192c17.536 0 32 14.464 32 32V704.032c0 17.536-14.464 32-32 32h-192zM833.536 416.064H641.6a96 96 0 0 0-96 96V704.032a96 96 0 0 0 96 96h192a96 96 0 0 0 95.968-96v-191.968a96 96 0 0 0-96-96zM641.6 736.064c-17.536 0-32-14.464-32-32v-191.968c0-17.536 14.464-32 32-32h192c17.536 0 32 14.464 32 32V704.032c0 17.536-14.464 32-32 32h-192zM383.936-32h-192A96 96 0 0 0 96 64v192.096a96 96 0 0 0 96 96h191.968a96 96 0 0 0 95.968-96v-191.968a96.16 96.16 0 0 0-96-96.128z m-192 320.096c-17.536 0-32-14.272-32-32v-191.968c0-17.696 14.464-32 32-32h192c17.536 0 32 14.304 32 32v192c0 17.696-14.464 32-32 32h-192zM833.536-32H641.6a96 96 0 0 0-96 96v192.096a96 96 0 0 0 96 96h192a96 96 0 0 0 95.968-96v-191.968a96.16 96.16 0 0 0-96-96.128zM641.6 288.096c-17.536 0-32-14.272-32-32v-191.968c0-17.696 14.464-32 32-32h192c17.536 0 32 14.304 32 32v192c0 17.696-14.464 32-32 32h-192z"  horiz-adv-x="1024" />
      
      <glyph glyph-name="suolvetu" unicode="&#58991;" d="M896 688.064h-288.096c-17.728 0-32 14.272-32 32 0 17.696 14.272 32 32 32h287.936c17.728 0 32-14.304 32-32a31.68 31.68 0 0 0-31.808-32zM896 464.064h-288.096c-17.728 0-32 14.272-32 32 0 17.696 14.272 32 32 32h287.936c17.728 0 32-14.304 32-32 0-17.728-14.08-32-31.808-32zM896 240.032h-288.096c-17.728 0-32 14.304-32 32 0 17.728 14.272 32 32 32h287.936c17.728 0 32-14.272 32-32 0-17.696-14.08-32-31.808-32zM896 16.064h-288.096c-17.728 0-32 14.272-32 32 0 17.696 14.272 32 32 32h287.936c17.728 0 32-14.304 32-32 0-17.728-14.08-32-31.808-32zM383.936 416.064H191.968a96 96 0 0 0-96 96V704.032a96 96 0 0 0 96 96h191.968a96 96 0 0 0 96-96v-191.968a96 96 0 0 0-96-96zM191.968 736.064c-17.536 0-32-14.464-32-32v-191.968c0-17.536 14.464-32 32-32h191.968c17.536 0 32 14.464 32 32V704.032c0 17.536-14.464 32-32 32H191.968zM383.936-32H191.968a96 96 0 0 0-96 95.968v192.128a96 96 0 0 0 96 96h191.968a96 96 0 0 0 96-96v-191.968a96.16 96.16 0 0 0-96-96.16zM191.968 288.096c-17.536 0-32-14.272-32-32v-191.968c0-17.696 14.464-32 32-32h191.968c17.536 0 32 14.304 32 32v192c0 17.696-14.464 32-32 32H191.968z"  horiz-adv-x="1024" />
      
      <glyph glyph-name="zuijinxuanshang" unicode="&#58989;" d="M521.701053 770.101895a9.431579 9.431579 0 0 1 4.850526 1.94021c3.880421 2.586947 9.054316 7.114105 15.521684 13.581474 7.760842 7.114105 15.521684 12.288 23.282526 15.521684 7.760842 3.233684 18.108632 2.263579 31.043369-2.910316a39.343158 39.343158 0 0 0 15.521684-8.245894l11.156211-10.186106c3.557053-3.233684 7.437474-5.982316 11.641263-8.245894a33.522526 33.522526 0 0 1 16.006737-3.395369c6.467368 0 11.964632 0.970105 16.491789 2.910316 4.527158 1.940211 8.892632 3.718737 13.096421 5.335579a60.901053 60.901053 0 0 0 12.611369 3.395368 32.660211 32.660211 0 0 0 15.090526-1.94021c6.467368-2.586947 10.778947-6.305684 13.042526-11.156211 2.263579-4.850526 2.910316-9.862737 1.940211-15.036631a40.744421 40.744421 0 0 0-6.790737-15.521684 44.193684 44.193684 0 0 0-13.096421-12.611369 112.855579 112.855579 0 0 1-28.133053-23.767579 591.602526 591.602526 0 0 1-30.073263-41.229474 253.035789 253.035789 0 0 1-10.671158-17.461894c-3.880421-7.114105-8.084211-13.904842-12.611368-20.372211H420.810105a676.217263 676.217263 0 0 1-13.581473 22.312421c-3.880421 6.467368-8.084211 12.934737-12.611369 19.402106a407.605895 407.605895 0 0 0-11.641263 17.461894 140.988632 140.988632 0 0 1-21.827368 25.70779 309.948632 309.948632 0 0 1-23.713685 19.887158 44.786526 44.786526 0 0 0-17.515789 23.767579c-3.233684 10.024421-0.323368 18.593684 8.730947 25.707789a21.665684 21.665684 0 0 0 15.521684 3.880421c5.820632-0.646737 11.964632-1.940211 18.432-3.880421l18.917053-5.820632a30.881684 30.881684 0 0 1 16.976842-0.970105 37.941895 37.941895 0 0 1 20.372211 10.186105 130.425263 130.425263 0 0 0 23.282526 17.946948 40.151579 40.151579 0 0 0 28.133053 5.335579c10.347789-1.616842 18.108632-5.012211 23.282526-10.186105 2.586947-3.233684 5.389474-5.982316 8.245895-8.245895 2.910316-2.263579 5.982316-4.365474 9.216-6.305684 3.233684-2.586947 6.790737-4.850526 10.671158-6.790737z m109.621894-194.021053c7.760842-10.347789 17.461895-21.665684 29.103158-33.953684 9.701053-10.994526 21.665684-23.444211 35.893895-37.349053 14.228211-13.904842 30.72-28.618105 49.475368-44.139789 15.521684-13.581474 31.528421-29.588211 48.020211-48.020211 16.491789-18.432 30.881684-39.936 43.169684-64.512 12.288-24.576 20.857263-52.870737 25.70779-84.88421 4.850526-32.013474 4.042105-67.745684-2.425264-107.196632a272.060632 272.060632 0 0 0-34.438736-91.674947 259.880421 259.880421 0 0 0-68.392421-75.183158c-28.456421-21.342316-62.248421-38.319158-101.322106-50.930526-39.181474-12.611368-83.644632-18.917053-133.443368-18.917053-51.092211 0-96.363789 7.275789-135.814737 21.827368s-72.919579 33.468632-100.405895 56.751158A285.803789 285.803789 0 0 0 220.968421 75.991579a276.264421 276.264421 0 0 0-32.013474 85.854316 280.414316 280.414316 0 0 0-2.425263 91.189894 323.260632 323.260632 0 0 0 64.026948 152.306527 395.048421 395.048421 0 0 0 53.840842 57.23621 1271.915789 1271.915789 0 0 1 45.594947 42.199579c13.581474 13.258105 24.899368 25.384421 33.953684 36.378948 10.994526 12.288 20.695579 23.929263 29.103158 34.923789h218.273684z m-102.831158-297.822316l-26.192842 26.192842-20.37221 20.372211a202.105263 202.105263 0 0 0-13.581474 14.551579 60.793263 60.793263 0 0 1-20.37221 11.15621 18.432 18.432 0 0 1-21.342316-5.335579c-5.173895-7.114105-6.467368-14.066526-3.880421-20.857263s5.497263-12.126316 8.730947-16.006737l14.551579-13.581473 23.282526-25.222737c9.701053-10.347789 20.372211-21.342316 32.013474-32.983579l-0.970105-20.372211H434.391579a19.833263 19.833263 0 0 1-15.036632-6.790736 21.072842 21.072842 0 0 1-6.305684-14.551579c0-5.173895 1.940211-9.701053 5.820632-13.581474a21.018947 21.018947 0 0 1 15.521684-5.820632h65.967158V141.473684H434.391579a22.528 22.528 0 0 1-15.036632-5.335579 17.515789 17.515789 0 0 1-6.305684-14.066526 14.012632 14.012632 0 0 1 5.389474-13.096421 23.929263 23.929263 0 0 1 15.952842-5.335579h65.967158v-19.402105c0.646737-9.054316 3.557053-15.36 8.730947-18.917053a33.414737 33.414737 0 0 1 19.402105-5.335579 21.450105 21.450105 0 0 1 18.917053 7.27579 25.546105 25.546105 0 0 1 7.27579 16.976842v19.402105h67.907368a27.486316 27.486316 0 0 1 16.006737 4.365474c4.203789 2.910316 5.982316 7.599158 5.389474 14.066526 0 13.581474-9.108211 20.372211-27.216843 20.37221H554.684632l0.970105 32.983579 63.056842 0.970106c9.054316-0.646737 15.521684 1.131789 19.402105 5.335579a21.396211 21.396211 0 0 1 5.820632 15.036631 19.456 19.456 0 0 1-6.305684 14.066527c-4.203789 4.203789-10.778947 6.305684-19.887158 6.305684h-63.056842v18.432c10.994526 10.347789 21.018947 20.372211 30.073263 30.073263 7.760842 7.760842 15.521684 15.683368 23.282526 23.767579 7.760842 8.084211 13.581474 13.743158 17.461895 16.976842 14.874947 12.934737 18.108632 24.252632 9.701052 33.953684a21.180632 21.180632 0 0 1-17.461894 8.730948 28.564211 28.564211 0 0 1-19.402106-7.760843 1362.566737 1362.566737 0 0 1-39.774315-34.923789l-30.073264-28.133053z"  horiz-adv-x="1024" />
      
      <glyph glyph-name="kongjianziyuan" unicode="&#58988;" d="M148.593778 476.501333l345.315555-160.142222a67.697778 67.697778 0 0 1 58.595556 0.682667l336.896 165.489778c23.324444 11.434667 37.888 34.702222 38.058667 60.643555a67.697778 67.697778 0 0 1-37.319112 61.155556L556.487111 773.518222a68.266667 68.266667 0 0 1-61.269333 0.170667L146.716444 599.153778a67.640889 67.640889 0 0 1-37.546666-61.895111c0.341333-26.339556 15.473778-49.607111 39.424-60.757334z m738.190222-220.387555l-363.861333-188.302222-373.134223 182.272a43.463111 43.463111 0 1 1-38.115555-78.222223l375.239111-183.182222a82.261333 82.261333 0 0 1 73.898667 0.796445l366.023111 189.383111a43.463111 43.463111 0 1 1-40.049778 77.255111zM111.616 321.991111l375.239111-183.296a82.261333 82.261333 0 0 1 73.898667 0.853333l366.023111 189.383112a43.52 43.52 0 1 1-39.992889 77.255111l-363.861333-188.302223-373.134223 182.272a43.463111 43.463111 0 1 1-38.115555-78.222222zM495.274667 773.688889L146.716444 599.153778a67.640889 67.640889 0 0 1-37.546666-61.895111c0.398222-26.396444 15.530667-49.607111 39.424-60.757334l345.315555-160.142222a67.697778 67.697778 0 0 1 58.595556 0.682667l253.724444 124.586666a524.401778 524.401778 0 0 1 1.536 204.401778L556.430222 773.518222a68.096 68.096 0 0 1-61.155555 0.170667zM778.012444 349.866667l-255.146666-131.982223-373.077334 182.272a43.463111 43.463111 0 1 1-38.115555-78.222222l375.239111-183.182222a82.261333 82.261333 0 0 1 73.898667 0.796444l127.943111 66.218667a519.509333 519.509333 0 0 1 89.315555 144.156445z m-266.808888-276.309334l-361.415112 176.526223a43.406222 43.406222 0 0 1-62.464-36.408889 43.52 43.52 0 0 1 24.348445-41.813334l278.755555-136.078222a516.437333 516.437333 0 0 1 120.775112 37.774222zM674.133333 713.841778L556.487111 773.461333a68.266667 68.266667 0 0 1-61.269333 0.170667L146.716444 599.153778a67.640889 67.640889 0 0 1-37.546666-61.895111c0.398222-26.396444 15.530667-49.607111 39.424-60.757334l327.964444-152.120889a519.793778 519.793778 0 0 1 197.575111 389.461334z m-270.336-437.76l-254.008889 124.017778a43.463111 43.463111 0 1 1-38.115555-78.165334l184.263111-89.998222a518.428444 518.428444 0 0 1 107.861333 44.145778z m-250.140444-63.943111c22.072889 0 43.804444 1.536 65.194667 4.209777l-69.063112 33.678223a43.406222 43.406222 0 0 1-62.179555-33.678223c21.617778-2.616889 43.690667-4.209778 65.991111-4.209777zM495.274667 773.688889L146.716444 599.153778a67.640889 67.640889 0 0 1-37.546666-61.895111c0.398222-26.396444 15.530667-49.607111 39.424-60.757334l80.554666-37.376a522.126222 522.126222 0 0 1 296.220445 341.674667c-10.467556 0-20.764444-2.446222-30.151111-7.111111z"  horiz-adv-x="1024" />
      
      <glyph glyph-name="shangchuanwenjian" unicode="&#58987;" d="M853.3504-128H170.6752c-56.32 0-102.4 46.08-102.4 102.4V793.6c0 56.32 46.08 102.4 102.4 102.4h517.6832c26.752 0 53.504-10.8032 72.2432-30.1568l164.992-164.9664a102.5792 102.5792 0 0 0 30.1568-72.2432V-25.6c0-56.32-46.08-102.4-102.4-102.4zM170.6752 827.7248c-18.7648 0-34.1248-15.36-34.1248-34.1248v-819.2c0-18.7648 15.36-34.1248 34.1248-34.1248h682.6752c18.7648 0 34.1248 15.36 34.1248 34.1248V628.6336a31.8464 31.8464 0 0 1-10.24 23.8848l-164.992 164.9664a30.976 30.976 0 0 1-23.8848 10.24H170.6752zM512 145.0752c-18.7648 0-34.1248 15.36-34.1248 34.1248V439.7568L399.36 363.52a34.176 34.176 0 1 0-47.7696 48.9216l136.5248 132.5568a21.6064 21.6064 0 0 0 7.3984 5.12l3.4048 1.7152c3.9936 1.6896 7.9616 2.816 11.9552 2.816h2.2784c3.968 0 7.3984-1.1264 10.8032-2.2528 1.1264-0.5632 1.7152-0.5632 2.8416-1.152 3.4048-1.6896 6.272-3.4048 9.1136-6.2464l136.5248-132.5568A34.176 34.176 0 1 0 624.64 363.52l-78.4896 76.2368V179.2c0-18.7648-15.36-34.1248-34.1504-34.1248zM938.6752 588.8h-187.7248c-56.32 0-102.4 46.08-102.4 102.4V827.7248H716.8V691.2c0-18.7648 15.36-34.1248 34.1504-34.1248h187.7248V588.8z"  horiz-adv-x="1024" />
      
      <glyph glyph-name="jingxuan" unicode="&#58986;" d="M501.184 788.928a67.968 67.968 0 0 0 77.312-49.28c6.336-22.912-0.64-48.64-17.472-65.28 5.44-4.736 9.92-10.304 14.848-15.488l142.464-155.776 93.44 56.96c9.408 5.568 18.432 12.288 29.184 14.912a68.096 68.096 0 0 0 96.96 64 67.84 67.84 0 0 0 34.816-84.864c-6.016-16.64-19.008-30.464-35.072-37.76a71.04 71.04 0 0 0-28.928-6.4c-13.248-73.28-26.88-146.496-40.32-219.712-9.728-52.096-18.752-104.32-29.44-156.16-4.992-25.408-9.92-50.752-15.04-76.096a112.064 112.064 0 0 0-107.904-78.976H307.968a113.024 113.024 0 0 0-103.04 56.96 87.552 87.552 0 0 0-10.56 27.136c-8.832 45.76-18.432 91.392-26.88 137.28-18.816 103.232-38.016 206.464-56.768 309.76a68.032 68.032 0 0 0-64.384 61.824 67.648 67.648 0 0 0 54.72 72.192 67.712 67.712 0 0 0 80.96-70.208 61.248 61.248 0 0 0 13.504-6.4c35.712-21.824 71.488-43.52 107.2-65.28 47.68 51.968 95.168 104.128 142.72 156.16 5.696 6.08 10.944 12.544 17.472 17.728a67.2 67.2 0 0 0-4.16 87.104c10.24 13.504 25.792 22.784 42.432 25.6z m5.184-46.592a21.568 21.568 0 0 1-14.976-22.4 21.504 21.504 0 0 1 42.048-3.52 21.12 21.12 0 0 1-9.984 24.128 21.76 21.76 0 0 1-17.088 1.792z m-16.256-105.6L326.848 458.24a26.88 26.88 0 0 0-35.264-3.712c-40 24.384-80 48.64-120 73.088a16.64 16.64 0 0 1-8.768 2.88c-1.984-1.984-4.096-3.904-6.336-5.76a52.224 52.224 0 0 1 0.768-10.752l60.608-329.856c7.68-38.08 15.04-76.16 22.72-114.24 7.232-21.76 27.008-38.72 49.536-43.008 8.832-1.856 17.92-1.216 26.88-1.28h372.992c10.304 0.128 20.608-0.256 30.912 0.192 25.792 1.472 50.048 19.648 57.984 44.352 7.68 38.272 15.168 76.544 22.784 114.752l60.608 329.344c0.64 4.48 1.28 9.152 0.256 13.568-3.584 3.52-9.6 3.072-13.568 0.448l-124.416-75.776a23.68 23.68 0 0 0-30.976 7.104c-53.824 59.2-107.968 118.08-161.856 177.152a29.056 29.056 0 0 1-41.6 0.128z m-380.736-38.4a21.44 21.44 0 0 1-16.384-24.448c1.92-12.352 16.512-20.928 28.16-16 3.84 3.84 7.872 7.424 12.224 10.688a20.736 20.736 0 0 1-3.904 23.872 21.632 21.632 0 0 1-20.096 5.888z m795.008 0a21.44 21.44 0 0 1-16.768-18.432 21.312 21.312 0 0 1 16.384-22.784 21.632 21.632 0 0 1 24.96 12.992 21.056 21.056 0 0 1-9.024 25.792 21.888 21.888 0 0 1-15.552 2.432zM498.56 460.224a116.48 116.48 0 1 0 27.712-231.168A116.48 116.48 0 0 0 498.56 460.16z m0.96-46.912c-17.536-3.2-33.472-13.568-43.84-27.968a69.376 69.376 0 0 1 13.376-95.296 69.632 69.632 0 0 1 112.64 45.824 69.12 69.12 0 0 1-4.672 35.2 70.4 70.4 0 0 1-35.136 36.864 69.184 69.184 0 0 1-42.368 5.376z m-156.096-270.976c4.096 1.28 8.384 0.896 12.608 0.896h317.952c4.928 0 10.112 0.576 14.848-1.344a23.36 23.36 0 0 0-9.792-45.12H352a24.96 24.96 0 0 0-15.04 4.224 23.296 23.296 0 0 0 6.4 41.344z"  horiz-adv-x="1024" />
      
      <glyph glyph-name="jiahao2" unicode="&#58985;" d="M870.4 426.688H593.088V704c0 25.6-17.088 42.688-42.688 42.688S507.776 729.6 507.776 704v-277.312H230.4c-25.6 0-42.624-17.088-42.624-42.688s17.024-42.688 42.624-42.688h277.376V64c0-25.6 17.024-42.688 42.624-42.688s42.688 17.088 42.688 42.688V341.312H870.4c25.6 0 42.688 17.088 42.688 42.688S896 426.688 870.4 426.688z"  horiz-adv-x="1088" />
      
      <glyph glyph-name="yigoukongjian" unicode="&#58984;" d="M639.658667 588.344889v48.412444c0 34.588444-34.360889 62.691556-76.686223 62.691556h-90.453333c-42.268444 0-76.629333-28.103111-76.629333-62.691556v-48.412444H335.075556v48.412444C334.848 701.269333 396.572444 753.777778 472.462222 753.777778h90.453334c75.889778 0 137.671111-52.508444 137.671111-117.020445v-48.412444h-60.984889zM866.645333 485.205333l20.764445-454.200889c0-72.476444-61.212444-130.56-135.964445-130.56H272.497778c-74.695111 0-135.964444 58.026667-135.907556 132.096l20.764445 451.128889c0 72.590222 61.212444 130.673778 135.907555 130.673778h437.475556c74.695111 0 135.964444-58.083556 135.907555-129.137778z m-389.461333-337.009777a32.768 32.768 0 0 1 17.976889 7.907555l201.102222 179.313778a26.339556 26.339556 0 0 1 9.159111 19.797333 26.396444 26.396444 0 0 1-9.159111 19.740445 34.019556 34.019556 0 0 1-44.259555 0l-179.939556-160.426667-78.222222 69.688889a34.474667 34.474667 0 0 1-44.885334 0 26.737778 26.737778 0 0 1-9.216-19.911111c0-7.566222 3.356444-14.791111 9.216-20.024889L448.284444 155.875556a34.247111 34.247111 0 0 1 28.956445-7.68z"  horiz-adv-x="1024" />
      
      <glyph glyph-name="kongjianzongduo" unicode="&#58983;" d="M838.428444 457.102222l-284.16-154.225778C527.928889 288.768 512 260.551111 512 229.262222v-298.211555c0-32.028444 31.345778-53.134222 57.571556-38.4l284.16 154.168889a83.626667 83.626667 0 0 1 42.268444 73.614222V418.133333c0 32.654222-31.345778 53.134222-57.571556 39.025778z m-432.64-153.6l-284.16 153.6c-26.282667 14.108444-57.628444-6.371556-57.628444-38.4v-299.52c0-31.345778 15.985778-59.505778 42.211556-73.614222l284.16-153.6c26.282667-14.051556 57.628444 7.054222 57.628444 39.082667V229.831111c0 31.345778-15.985778 59.505778-42.211556 73.614222z m406.357334 223.345778c13.425778 7.054222 19.854222 19.228444 18.545778 30.72 1.308444 12.174222-5.12 23.722667-18.545778 30.72L522.865778 739.328a90.965333 90.965333 0 0 1-43.52 10.24c-15.36 0-30.72-3.185778-43.52-10.24L146.545778 588.970667a32.426667 32.426667 0 0 1-18.545778-30.72 32.768 32.768 0 0 1 18.545778-31.402667l289.28-150.357333c12.8-7.054222 28.16-10.24 43.52-10.24s30.72 3.185778 43.52 10.24l289.28 150.357333z"  horiz-adv-x="1024" />
      
      <glyph glyph-name="dingshi" unicode="&#58982;" d="M539.4944 767.1296v20.48h113.3056a31.9488 31.9488 0 1 1 0 64H362.24a31.9488 31.9488 0 1 1 0-64h113.2544v-20.8896c-218.4192-18.5856-390.8096-202.0352-390.8096-425.3696 0-235.52 191.5904-427.3152 427.3152-427.3152 235.52 0 427.3152 191.5392 427.3152 427.3152 0 226.304-177.1008 411.4944-399.8208 425.7792zM512-21.76c-200.3456 0-363.3152 162.9696-363.3152 363.3152 0 200.2944 162.9696 363.0592 363.3152 363.0592 200.2944 0 363.3152-162.9696 363.3152-363.264 0-200.3456-163.0208-363.1104-363.3152-363.1104zM544 352.4096V540.5696a31.9488 31.9488 0 1 1-64 0v-210.1248l129.536-165.7856a32.1024 32.1024 0 0 1 25.088-12.3392 32.1536 32.1536 0 0 1 25.1904 51.8144l-115.8144 148.2752z"  horiz-adv-x="1024" />
      
      <glyph glyph-name="zhiding" unicode="&#58981;" d="M536.704 680.96l0.32-0.448 0.32-0.384L847.36 296.96a16 16 0 0 0-12.096-26.112H660.48v-256a32 32 0 0 0-32-32H396.48a32 32 0 0 0-32 32v256H190.016a16 16 0 0 0-9.728 3.328l-0.384 0.256a16 16 0 0 0-2.56 22.208l0.192 0.32L487.68 680.128a32 32 0 0 0 49.088 0.832z m319.296 103.04c4.48 0 8-3.392 8-7.552v-56.896a7.808 7.808 0 0 0-8-7.552H168a7.808 7.808 0 0 0-8 7.552v56.896c0 4.16 3.584 7.552 8 7.552h688z"  horiz-adv-x="1024" />
      
      <glyph glyph-name="paihangbang" unicode="&#58980;" d="M787.797333 409.429333a374.215111 374.215111 0 0 1-177.777777 104.106667l-75.093334 130.048 58.709334 97.166222H972.8l-185.002667-331.320889z m-275.911111 116.622223c-104.163556 0.056889-203.377778-41.358222-273.464889-113.948445L51.2 740.750222h379.164444L548.408889 524.288a404.935111 404.935111 0 0 1-36.522667 1.706667zM511.886222 482.474667c178.744889 0 323.697778-136.533333 323.868445-305.095111 0-168.561778-144.839111-305.265778-323.640889-305.379556H512c-178.801778 0-323.754667 136.647111-323.754667 305.265778 0 168.561778 144.839111 305.208889 323.640889 305.208889zM391.395556 14.051556l120.433777 59.733333 120.433778-59.733333-23.04 126.407111 97.393778 89.6-134.712889 18.488889-60.074667 115.029333-60.188444-115.143111-134.712889-18.488889 97.393778-89.6-22.869334-126.293333z"  horiz-adv-x="1024" />
      
      <glyph glyph-name="zhongxinfasong" unicode="&#58979;" d="M832.128 384V713.216a27.456 27.456 0 0 1-27.392 27.392H146.304a27.456 27.456 0 0 1-27.456-27.392v-658.432c0-15.168 12.288-27.456 27.456-27.456H475.52a27.456 27.456 0 1 0 0-54.848H146.304c-45.44 0-82.304 36.864-82.304 82.304V713.216c0 45.44 36.864 82.304 82.304 82.304h658.432c45.44 0 82.304-36.864 82.304-82.304V384a27.456 27.456 0 1 0-54.912 0zM624 580.48a27.456 27.456 0 0 0 0-54.848h-384a27.456 27.456 0 1 0 0 54.912h384zM404.544 387.648a27.456 27.456 0 1 0 0-54.848H240a27.456 27.456 0 0 0 0 54.848h164.608zM905.152 137.088c0 56.832-43.2 103.552-98.56 109.184l-11.2 0.576H603.072a27.456 27.456 0 1 0 0 54.848h192.32l8.448-0.192a164.608 164.608 0 0 0-8.448-328.96H603.072a27.456 27.456 0 1 0 0 54.784h192.32c60.608 0 109.76 49.152 109.76 109.76zM670.848 371.2L573.824 274.304l97.024-96.96a27.456 27.456 0 1 0-38.848-38.784l-116.352 116.352a27.456 27.456 0 0 0 0 38.784l116.352 116.48a27.456 27.456 0 0 0 38.848-38.848z"  horiz-adv-x="1024" />
      
      <glyph glyph-name="shijian" unicode="&#58978;" d="M512 831.488A447.926857 447.926857 0 0 1 64.512 384 447.926857 447.926857 0 0 1 512-63.488 448 448 0 0 1 959.488 384 448 448 0 0 1 512 831.488z m0-828.342857A381.293714 381.293714 0 0 0 131.145143 384 381.293714 381.293714 0 0 0 512 764.854857 381.293714 381.293714 0 0 0 892.854857 384 381.293714 381.293714 0 0 0 512 3.145143zM730.477714 296.228571l-189.878857 69.193143v295.497143a33.28 33.28 0 1 1-66.633143 0v-319.122286c0-0.950857 0-1.828571 0.146286-2.779428v-0.731429a40.813714 40.813714 0 0 1 0.438857-2.413714l0.146286-0.877714a32.329143 32.329143 0 0 1 2.925714-8.045715l0.585143-1.097142a41.691429 41.691429 0 0 1 2.998857-4.534858l0.512-0.658285a40.521143 40.521143 0 0 1 1.682286-1.828572l0.512-0.438857a32.548571 32.548571 0 0 1 1.828571-1.682286l0.585143-0.512a21.284571 21.284571 0 0 1 1.901714-1.462857l0.731429-0.512a31.451429 31.451429 0 0 1 1.901714-1.097143l1.024-0.585142a31.817143 31.817143 0 0 1 3.072-1.462858L495.908571 310.857143l211.821715-77.165714a33.865143 33.865143 0 0 1 32.841143 5.851428 33.28 33.28 0 0 1-10.020572 56.832z"  horiz-adv-x="1024" />
      
      <glyph glyph-name="qiehuan2" unicode="&#58977;" d="M512 865.882353a481.882353 481.882353 0 1 1 0-963.764706 481.882353 481.882353 0 0 1 0 963.764706z m0-891.482353A409.6 409.6 0 1 0 512 793.6a409.6 409.6 0 0 0 0-819.2zM752.941176 299.670588a36.261647 36.261647 0 0 0-36.141176-36.141176H394.480941l57.464471-57.524706a36.141176 36.141176 0 1 0-51.07953-51.07953l-119.265882 119.265883a36.141176 36.141176 0 0 0-8.734118 14.45647v0.602353c0 0.722824-0.421647 1.505882-0.602353 2.288942l-0.301176 1.204705c0 0.361412 0 1.325176-0.301177 2.048-0.361412 0.722824 0 0.963765 0 1.505883V299.851294a30.418824 30.418824 0 0 0 0 3.614118 36.020706 36.020706 0 0 0 31.744 32.346353 30.418824 30.418824 0 0 0 3.614118 0h409.6a36.201412 36.201412 0 0 0 36.321882-36.141177z m0 168.658824v5.059764c0 0.542118 0 1.325176-0.361411 2.048-0.301176 0.602353 0 0.722824-0.240941 1.204706-0.301176 0.421647-0.361412 1.505882-0.602353 2.288942v0.602352a35.538824 35.538824 0 0 1-8.734118 14.456471l-119.868235 119.085177a36.141176 36.141176 0 1 1-51.07953-51.07953l57.464471-57.524706H307.2a36.141176 36.141176 0 1 1 0-72.282353h409.6a30.72 30.72 0 0 1 3.614118 0 36.020706 36.020706 0 0 1 32.527058 32.346353 30.900706 30.900706 0 0 1 0 3.794824z"  horiz-adv-x="1024" />
      
      <glyph glyph-name="guanli1" unicode="&#58975;" d="M383.179792 894.836639H85.172395c-27.708225 0-53.240746-12.798256-68.150714-34.043362A86.644195 86.644195 0 0 1 0 809.728235v-298.071388c0-46.841618 38.330777-85.108404 85.108404-85.108404h298.071388c46.841618 0 85.172395 38.266786 85.172395 85.108404V809.728235c0 46.841618-38.330777 85.108404-85.108404 85.108404zM768.535287 383.93025c21.309097 0 40.44249 8.51084 55.352458 23.420808l176.679928 176.679928a77.301468 77.301468 0 0 1 0 110.704916L823.887745 873.591533a79.733136 79.733136 0 0 1-110.704916 0L536.502901 696.847615a77.301468 77.301468 0 0 1 0-110.704917l176.615937-176.615936c14.97396-17.085672 34.107353-25.596512 55.416449-25.596512z m0 423.622281l168.169087-168.169087-168.169087-168.169087-166.057375 168.169087L768.535287 807.552531zM383.179792 341.376048H85.172395C38.330777 341.376048 0 302.981279 0 256.203652v-298.071388c0-46.841618 38.330777-85.108404 85.108404-85.108404h298.071388c46.841618 0 85.172395 38.266786 85.172395 85.108404V256.203652c0 46.841618-38.330777 85.108404-85.108404 85.108404z m555.636294 0h-298.007396c-46.841618 0-85.172395-38.394769-85.172395-85.172396v-298.071388c0-46.841618 38.330777-85.108404 85.108404-85.108404h298.071387c46.841618 0 85.172395 38.266786 85.172396 85.108404V256.203652c0 46.841618-38.330777 85.108404-85.108404 85.108404z"  horiz-adv-x="1024" />
      
      <glyph glyph-name="guanli11" unicode="&#58976;" d="M383.179792 894.836639H85.172395c-27.708225 0-53.240746-12.798256-68.150714-34.043362A86.644195 86.644195 0 0 1 0 809.728235v-298.071388c0-46.841618 38.330777-85.108404 85.108404-85.108404h298.071388c46.841618 0 85.172395 38.266786 85.172395 85.108404V809.728235c0 46.841618-38.330777 85.108404-85.108404 85.108404zM768.535287 383.93025c21.309097 0 40.44249 8.51084 55.352458 23.420808l176.679928 176.679928a77.301468 77.301468 0 0 1 0 110.704916L823.887745 873.591533a79.733136 79.733136 0 0 1-110.704916 0L536.502901 696.847615a77.301468 77.301468 0 0 1 0-110.704917l176.615937-176.615936c14.97396-17.085672 34.107353-25.596512 55.416449-25.596512z m0 423.622281l168.169087-168.169087-168.169087-168.169087-166.057375 168.169087L768.535287 807.552531zM383.179792 341.376048H85.172395C38.330777 341.376048 0 302.981279 0 256.203652v-298.071388c0-46.841618 38.330777-85.108404 85.108404-85.108404h298.071388c46.841618 0 85.172395 38.266786 85.172395 85.108404V256.203652c0 46.841618-38.330777 85.108404-85.108404 85.108404z m555.636294 0h-298.007396c-46.841618 0-85.172395-38.394769-85.172395-85.172396v-298.071388c0-46.841618 38.330777-85.108404 85.108404-85.108404h298.071387c46.841618 0 85.172395 38.266786 85.172396 85.108404V256.203652c0 46.841618-38.330777 85.108404-85.108404 85.108404z"  horiz-adv-x="1024" />
      
      <glyph glyph-name="jiahao" unicode="&#58974;" d="M512 779.52a395.52 395.52 0 1 1 0-791.04 395.52 395.52 0 0 1 0 791.04z m197.76-423.765333h-169.514667v-169.514667a28.245333 28.245333 0 0 0-56.490666 0v169.514667H314.24a28.245333 28.245333 0 0 0 0 56.490666h169.514667V581.76a28.245333 28.245333 0 1 0 56.490666 0v-169.514667h169.514667a28.245333 28.245333 0 1 0 0-56.490666z"  horiz-adv-x="1024" />
      
      <glyph glyph-name="gonggao" unicode="&#58973;" d="M931.52 425.472h-173.44a35.712 35.712 0 0 1-35.584-35.712v-11.2c0-19.776 15.936-35.712 35.584-35.712h173.44c19.712 0 35.648 16 35.648 35.712V389.76a35.712 35.712 0 0 1-35.648 35.712zM529.088 732.352c-53.888-42.88-166.784-103.04-248.064-160.832H280.96c-0.96-0.64-1.92-3.84-2.816-4.352-9.6-5.376-13.888-20.288-66.048-20.288h-101.76c-26.176 0-42.368-12.224-42.368-39.808v-245.12c0-27.52 14.848-41.152 42.304-41.152H212.48c51.904-0.128 56.128-14.912 65.728-20.352 0.896-0.512 1.792-3.712 2.752-4.288h0.128c78.72-57.856 192.32-122.688 248.064-163.84 16.768-12.352 72.576-34.112 72.576 42.496V693.12c0 76.672-56.256 52.16-72.64 39.168z m160.192-168.96c9.216-16.256 27.52-20.352 40.768-9.152l142.592 120.192c13.312 11.2 16.64 33.472 7.424 49.728l-5.184 9.216c-9.216 16.256-27.52 20.288-40.768 9.088l-142.592-120.128c-13.312-11.264-16.64-33.472-7.424-49.728l5.184-9.216z m40.768-349.952c-13.312 11.2-31.552 7.104-40.768-9.088l-5.248-9.216c-9.216-16.192-5.824-38.464 7.488-49.728l142.528-120.128c13.376-11.2 31.616-7.168 40.768 9.088l5.248 9.152c9.216 16.256 5.824 38.528-7.424 49.792l-142.592 120.128z"  horiz-adv-x="1024" />
      
      <glyph glyph-name="cainixihuan" unicode="&#58972;" d="M512-128a512 512 0 0 0-512 512 512 512 0 0 0 512 512 512 512 0 0 0 512-512 512 512 0 0 0-512-512z m9.216 658.773333c-103.139556 171.406222-328.988444 56.32-285.297778-137.841777 42.666667-190.008889 285.297778-290.531556 285.297778-290.531556s242.517333 100.522667 285.184 290.531556c43.690667 194.218667-182.215111 309.248-285.184 137.841777z"  horiz-adv-x="1024" />
      
      <glyph glyph-name="huati" unicode="&#58970;" d="M704 597.3504l36.352 181.9648a39.0144 39.0144 0 0 0 38.2976 31.3344 26.2656 26.2656 0 0 0 25.7536-31.3344L768 597.3504h138.6496a32 32 0 0 0 0-64H755.2l-59.7504-298.6496h211.2a32 32 0 0 0 0-64h-224l-36.352-181.9648a39.0144 39.0144 0 0 0-38.2976-31.3856 26.2144 26.2144 0 0 0-25.7536 31.3856l36.4032 181.9136H320l-36.4032-181.9136a39.0656 39.0656 0 0 0-38.2464-31.3856 26.1632 26.1632 0 0 0-25.7536 31.3856l36.352 181.9136H117.4016a32 32 0 1 0 0 64H268.8l59.7504 298.7008H117.3504a32 32 0 0 0 0 64h224l36.352 181.9648a39.0144 39.0144 0 0 0 38.2976 31.3344 26.2656 26.2656 0 0 0 25.7024-31.3344l-36.352-181.9648h298.6496z m-12.8-64H392.5504L332.8 234.7008h298.6496L691.2 533.3504z"  horiz-adv-x="1024" />
      
      <glyph glyph-name="wenjian" unicode="&#58971;" d="M815.5136 736v-704c0-17.7152-14.336-32-32-32H240.4864a31.9488 31.9488 0 0 0-32 32V736c0 17.7152 14.336 32 32 32h543.0272c17.664 0 32-14.336 32-32z m0 96H208.4864c-35.328 0-64-28.672-64-64v-768c0-35.328 28.672-64 64-64h607.0272c35.328 0 64 28.672 64 64v768c0 35.328-28.672 64-64 64zM703.488 576h-384a31.9488 31.9488 0 1 0 0 64h384a31.9488 31.9488 0 1 0 0-64z m0-192h-384a31.9488 31.9488 0 1 0 0 64h384a31.9488 31.9488 0 1 0 0-64z m-192-192H319.488a31.9488 31.9488 0 1 0 0 64h192a31.9488 31.9488 0 1 0 0-64z"  horiz-adv-x="1024" />
      
      <glyph glyph-name="chouti" unicode="&#58969;" d="M893.184 733.568a32 32 0 0 0 0-64h-704a32 32 0 1 0 0 64h704zM893.184 162.432a32 32 0 0 0 0-64h-704a32 32 0 0 0 0 64h704zM573.184 543.168a32 32 0 1 0 0-64h-384a32 32 0 1 0 0 64h384zM573.184 352.768a32 32 0 0 0 0-64h-384a32 32 0 1 0 0 64h384zM914.88 422.72a12.8 12.8 0 0 0 0-20.672l-156.16-114.176a12.8 12.8 0 0 0-20.352 10.304v228.48a12.8 12.8 0 0 0 20.352 10.24l156.16-114.176z"  horiz-adv-x="1024" />
      
      <glyph glyph-name="zhaopian" unicode="&#58967;" d="M972.8 729.6c0 31.6928-25.9072 57.6-57.6 57.6H108.8C77.1072 787.2 51.2 761.2928 51.2 729.6v-691.2c0-31.6928 25.9072-57.6 57.6-57.6h806.4c31.6928 0 57.6 25.9072 57.6 57.6V729.6z m-57.6 0v-527.0528l-169.9328 172.8a27.136 27.136 0 0 1-37.4272 2.8672l-109.4144-95.0272-239.104 236.1856a46.4384 46.4384 0 0 1-20.1216 11.52 26.112 26.112 0 0 1-20.1728-8.6528l-210.2272-204.4928V729.6h806.4z m-806.4-691.2v198.7072l230.4 224.6656 239.0528-239.0528c8.6016-11.52 25.9072-11.52 40.2944 0l106.5984 95.0272 190.0544-195.84s2.8672 0 2.8672-2.8672v-80.64H108.8zM656.0256 556.8a57.6 57.6 0 1 1 115.2 0 57.6 57.6 0 0 1-115.2 0z"  horiz-adv-x="1024" />
      
      <glyph glyph-name="biaoqingbao" unicode="&#58968;" d="M872.8064 140.032h0.0512v0.3584l-0.0512-0.4096zM837.9904 709.9904c-179.712 179.712-472.2176 179.712-651.9808 0-179.712-179.712-179.712-472.2176 0-651.9808 179.712-179.712 472.2176-179.712 651.9808 0 179.712 179.712 179.712 472.2176 0 651.9808z m-46.7968-605.184c-153.9584-153.9584-404.48-153.9584-558.3872 0-153.9584 153.9584-153.9584 404.4288 0 558.3872 153.9072 153.9584 404.48 153.9584 558.3872 0 153.9584-153.9072 153.9584-404.48 0-558.4384zM368.1792 432.5376a49.664 49.664 0 1 1-0.1536 99.3792 49.664 49.664 0 0 1 0.1536-99.328zM654.08 432.4864a49.7152 49.7152 0 0 1 0 99.328 49.664 49.664 0 0 1 0-99.328zM655.7696 265.8304l-2.7136-0.9216a341.504 341.504 0 0 0-141.7216-30.3616c-51.2 0-99.584 10.3424-143.872 30.72l-2.6624 0.768c-1.6896 0.4608-3.9424 1.1264-6.7584 1.1264a29.4912 29.4912 0 0 1-29.4912-29.44c0-7.68 3.584-15.4624 9.5744-21.2992l-0.3584-1.792 7.5776-3.3792a406.9376 406.9376 0 0 1 166.3488-36.5568c56.9344 0 112.7936 12.288 166.656 36.864a29.6448 29.6448 0 0 1 15.36 25.9584c0 19.0464-17.2032 34.6624-37.888 28.3136z"  horiz-adv-x="1024" />
      
      <glyph glyph-name="shipin" unicode="&#58966;" d="M825.6 742.4H198.4A134.8096 134.8096 0 0 1 64 608v-448A134.8096 134.8096 0 0 1 198.4 25.6h627.2a134.8096 134.8096 0 0 1 134.4 134.4v448A134.8096 134.8096 0 0 1 825.6 742.4z m-138.24-44.8l112.0256-112.0256H706.048l-111.9744 112.0256h93.3888z m-156.7744 0l112.0256-112.0256h-115.9168L414.72 697.6512h115.8656z m-179.2 0l112.0256-112.0256H347.4944L235.52 697.6512h115.8656z m-242.5856-89.6a89.6 89.6 0 0 0 66.7136 86.3232L284.16 585.6256H108.8v22.3744z m806.4-448c0-49.408-40.192-89.6-89.6-89.6H198.4c-49.408 0-89.6 40.192-89.6 89.6V540.8256h806.4v-380.8256z m0 425.6256H862.72l-112.0256 111.9744h74.9056c49.408 0 89.6-40.192 89.6-89.6v-22.4256zM453.9904 208.7936l149.2992 77.6192a37.376 37.376 0 0 1 0 66.816L468.0192 423.8336a47.0016 47.0016 0 0 1-68.0448-41.984v-139.6224c0-27.8016 29.184-45.824 54.016-33.4336zM444.7744 384l134.4512-67.1744-134.4512-67.2256V384z"  horiz-adv-x="1024" />
      
      <glyph glyph-name="remen" unicode="&#58964;" d="M454.477913 781.935304l0.044522 0.133566c-0.044522 0.044522-0.089043 0-0.044522-0.133566zM158.630957 452.251826z m361.427478-181.025391c-15.226435 0-27.514435-5.253565-36.819478-15.671652-9.349565-10.462609-14.024348-26.223304-14.024348-47.282087 0-20.702609 4.808348-36.418783 14.380521-47.104 9.572174-10.685217 21.726609-16.027826 36.463305-16.027826 14.692174 0 26.802087 5.253565 36.240695 15.89426 9.48313 10.596174 14.202435 26.534957 14.202435 47.727305 0 21.014261-4.630261 36.641391-13.801739 46.970435-9.216 10.329043-21.414957 15.493565-36.641391 15.493565zM839.590957 86.505739c5.654261 8.058435 10.50713 17.051826 14.425043 27.069218 112.996174 289.836522-277.370435 713.46087-318.063304 756.513391l0.26713-0.489739L532.301913 873.73913c5.921391-27.38087 9.705739-52.936348 11.709217-76.978087l-0.311652 2.493218a427.631304 427.631304 0 0 0-2.137043-99.461565l-0.356174-1.869913c-19.589565-124.972522-100.173913-199.457391-185.789218-277.058783-22.394435 21.548522-35.617391 52.624696-35.617391 98.348522A348.16 348.16 0 0 0 328.570435 591.026087l-0.178087-0.133565 0.178087 1.024S267.575652 552.470261 216.687304 477.94087l-0.534261-0.75687a418.504348 418.504348 0 0 1-9.616695-14.825739l-0.445218-0.712348a411.024696 411.024696 0 0 1-18.387478-33.213217l-0.445217-0.801392a388.229565 388.229565 0 0 1-7.702261-16.873739c-0.623304-1.335652-1.157565-2.760348-1.78087-4.185043a363.52 363.52 0 0 1-5.609739-14.246957l-1.513739-4.051478a366.948174 366.948174 0 0 1-3.027478-8.904348v-0.178087a331.597913 331.597913 0 0 1-2.982957-9.171478l-1.068521-3.784348a352.52313 352.52313 0 0 1-5.342609-21.103304 350.252522 350.252522 0 0 1-4.006957-20.034783v-0.089043a314.946783 314.946783 0 0 1-2.938434-22.750609l-0.133566-1.246609a372.379826 372.379826 0 0 1-1.424695-22.572521v-1.869914a348.872348 348.872348 0 0 1-0.178087-10.418086v-2.048l0.26713-10.462609c0-0.712348 0-1.469217 0.089044-2.226087 0.133565-3.472696 0.311652-6.989913 0.578782-10.551652l0.178087-2.226087c0.26713-3.561739 0.578783-7.168 0.979478-10.774261l0.222609-2.226087a369.797565 369.797565 0 0 1 3.561739-24.798609l0.311652-1.825391a376.742957 376.742957 0 0 1 5.832348-27.38087c4.674783-18.788174 10.729739-38.110609 18.521044-58.056347 3.917913-10.017391 8.770783-18.966261 14.425043-27.069218C260.719304-29.606957 448.022261-105.73913 448.022261-105.73913v0.044521h0.089043c3.561739 32.50087 17.719652 54.761739 38.733913 70.477913h-0.044521c0.089043 0.133565 0.222609 0.178087 0.356174 0.267131 4.229565 3.161043 8.770783 6.054957 13.534608 8.726261l0.75687 0.445217a156.271304 156.271304 0 0 0 15.048348 7.212522l0.445217 0.178087c37.398261-15.493565 63.888696-40.96 68.964174-87.351652 0 0 40.915478 16.65113 91.225043 46.169043l-0.222608-0.222609c57.433043 33.702957 127.332174 84.324174 162.682435 146.298435z m-439.117914 30.141218h-36.953043v80.050086H291.08313v-80.050086h-36.953043v183.028869h36.953043v-72.036174h72.43687v72.036174h36.953043v-182.984348z m184.141914 21.904695c-16.027826-16.65113-37.531826-25.021217-64.422957-25.021217-27.202783 0-48.840348 8.325565-64.912696 24.932174-16.072348 16.606609-24.086261 39.446261-24.086261 68.563478 0 18.69913 2.760348 34.281739 8.370087 46.970435 4.140522 9.349565 9.794783 17.67513 17.007305 25.065739a71.234783 71.234783 0 0 0 23.685565 16.473043c11.397565 4.897391 24.531478 7.257043 39.446261 7.257044 26.935652 0 48.528696-8.370087 64.734609-25.065739 16.161391-16.740174 24.264348-40.025043 24.264347-69.810087 0-29.562435-8.013913-52.669217-24.08626-69.36487z m39.846956 130.181565v30.942609h145.452522v-30.942609h-54.182957v-152.08626h-36.953043v152.08626h-54.316522z"  horiz-adv-x="1024" />
      
      <glyph glyph-name="guanli" unicode="&#58965;" d="M383.179792 894.836639H85.172395c-27.708225 0-53.240746-12.798256-68.150714-34.043362A86.644195 86.644195 0 0 1 0 809.728235v-298.071388c0-46.841618 38.330777-85.108404 85.108404-85.108404h298.071388c46.841618 0 85.172395 38.266786 85.172395 85.108404V809.728235c0 46.841618-38.330777 85.108404-85.108404 85.108404zM768.535287 383.93025c21.309097 0 40.44249 8.51084 55.352458 23.420808l176.679928 176.679928a77.301468 77.301468 0 0 1 0 110.704916L823.887745 873.591533a79.733136 79.733136 0 0 1-110.704916 0L536.502901 696.847615a77.301468 77.301468 0 0 1 0-110.704917l176.615937-176.615936c14.97396-17.085672 34.107353-25.596512 55.416449-25.596512z m0 423.622281l168.169087-168.169087-168.169087-168.169087-166.057375 168.169087L768.535287 807.552531zM383.179792 341.376048H85.172395C38.330777 341.376048 0 302.981279 0 256.203652v-298.071388c0-46.841618 38.330777-85.108404 85.108404-85.108404h298.071388c46.841618 0 85.172395 38.266786 85.172395 85.108404V256.203652c0 46.841618-38.330777 85.108404-85.108404 85.108404z m555.636294 0h-298.007396c-46.841618 0-85.172395-38.394769-85.172395-85.172396v-298.071388c0-46.841618 38.330777-85.108404 85.108404-85.108404h298.071387c46.841618 0 85.172395 38.266786 85.172396 85.108404V256.203652c0 46.841618-38.330777 85.108404-85.108404 85.108404z"  horiz-adv-x="1024" />
      
      <glyph glyph-name="fensi" unicode="&#58961;" d="M284.672-3.072a319.488 319.488 0 0 0 323.584 319.488c129.024-2.048 241.664-83.968 292.864-202.752 16.384-40.96 24.576-79.872 24.576-116.736 0-18.432 14.336-34.816 32.768-34.816h4.096c18.432 0 34.816 14.336 34.816 32.768 0 167.936-104.448 309.248-251.904 366.592a239.552 239.552 0 0 1 102.4 196.608c2.048 131.072-104.448 241.664-235.52 245.76C471.04 809.984 358.4 699.392 358.4 560.128c0-81.92 40.96-155.648 104.448-198.656-145.408-57.344-249.856-198.656-249.856-364.544v-2.048c0-16.384 14.336-30.72 32.768-30.72h8.192c16.384 0 30.72 14.336 30.72 32.768z m147.456 534.528a171.2 171.2 0 0 0 198.656 198.656A174.272 174.272 0 0 0 772.096 588.8 171.2 171.2 0 0 0 573.44 390.144a174.272 174.272 0 0 0-141.312 141.312zM323.584 406.528a143.04 143.04 0 0 0-112.64 141.312c0 69.632 49.152 126.976 114.688 141.312 12.288 2.048 22.528 14.336 22.528 28.672 0 18.432-18.432 32.768-36.864 28.672a206.272 206.272 0 0 1-161.792-200.704c0-69.632 34.816-131.072 88.064-167.936-122.88-47.104-208.896-167.936-208.896-307.2 0-10.24 0-18.432 2.048-28.672v-2.048c0-16.384 14.336-30.72 30.72-30.72s30.72 14.336 30.72 30.72v2.048c0 8.192-2.048 18.432-2.048 28.672a269.248 269.248 0 0 0 231.424 266.24 35.392 35.392 0 0 1 30.72 34.816c-4.096 16.384-14.336 30.72-28.672 34.816z"  horiz-adv-x="1024" />
      
      <glyph glyph-name="shenqing" unicode="&#58962;" d="M868.608 618.88v54.656c0.128 23.488 14.464 42.432 37.952 42.304 23.552-0.064 32.128-18.88 32.128-42.496v-161.792c0-18.624-16-32.64-34.624-32.64-16-2.304-27.904 0-35.84 6.72-10.752 9.024-26.752 30.528-48.064 64.384C761.088 652.032 638.272 739.712 512 739.712c-188.544 0-355.584-165.888-355.584-354.432 0-188.48 167.04-356.8 355.648-356.8 159.04 0 302.848 127.68 340.736 274.944a40.32 40.32 0 0 0 41.408 41.152c23.552 0 36.032-22.4 36.032-45.888A426.816 426.816 0 0 0 85.248 384a426.688 426.688 0 0 0 426.752 426.688c139.52 0 278.72-88.256 356.544-191.808z m25.408-26.048l-73.856-42.816 72.192 45.44c9.6-15.168 17.728-27.2 24.256-35.968a146.688 146.688 0 0 1 8-9.92 53.76 53.76 0 0 1-25.856 13.184 33.408 33.408 0 0 1-6.08 0.64h-0.768l6.08 0.832h6.144a51.776 51.776 0 0 1-50.816-52.48l14.848 107.136c15.168-18.56 13.952-5.568 25.856-26.048zM533.312 405.312h117.376a32 32 0 1 0 0-64H501.312a32 32 0 0 0-32 32V522.688a32 32 0 0 0 64 0v-117.376z"  horiz-adv-x="1024" />
      
      <glyph glyph-name="zhuanfa" unicode="&#58963;" d="M928.384 395.648a34.688 34.688 0 0 1-34.304-35.072v-313.216c0-22.848-18.176-41.536-40.704-41.536H159.744a41.216 41.216 0 0 0-40.704 41.6V574.976c0 22.912 18.176 41.6 40.704 41.6h247.36a34.688 34.688 0 0 1 34.304 35.008 34.688 34.688 0 0 1-34.304 35.072H159.744c-60.16 0-109.184-49.984-109.184-111.552v-527.68c0-61.504 49.024-111.488 109.184-111.488h693.632c60.16 0 109.248 49.92 109.248 111.488V360.576a34.56 34.56 0 0 1-34.24 35.072zM973.44 648.896a35.456 35.456 0 0 1-4.8 19.136l-84.288 145.92a36.352 36.352 0 0 1-49.408 13.248 36.352 36.352 0 0 1-13.248-49.344l55.296-95.744a486.272 486.272 0 0 1-308.032-141.44 486.272 486.272 0 0 1-142.848-344.832 36.096 36.096 0 1 1 72.32 0 415.936 415.936 0 0 0 374.912 413.44l-51.52-89.344a36.224 36.224 0 0 1 62.656-36.16l84.224 145.92a36.928 36.928 0 0 1 4.736 19.2z"  horiz-adv-x="1024" />
      
      <glyph glyph-name="zhuti" unicode="&#58960;" d="M539.712 411.712H318.4c-16.64 0-27.712-11.136-27.712-27.712 0-16.64 11.136-27.712 27.712-27.712h221.312c16.64 0 27.712 11.136 27.712 27.712-0.128 16.64-11.136 27.712-27.712 27.712z m165.888 138.24h-387.2c-16.64 0-27.712-11.072-27.712-27.648 0-16.64 11.136-27.712 27.712-27.712h387.2c16.64 0 27.712 11.136 27.712 27.712 0 16.64-11.136 27.712-27.712 27.712zM843.904 743.616H180.096c-46.976 0-83.008-36.032-83.008-83.008v-414.912c0-46.976 36.032-83.008 83.008-83.008h55.296v-110.592c0-11.072 5.504-19.392 13.824-24.896 5.504-2.816 8.32-2.816 13.76-2.816 5.504 0 11.136 2.816 16.64 5.504l185.408 132.8h378.88c46.976 0 83.008 36.032 83.008 83.008V660.608c0 46.976-36.032 83.008-83.008 83.008z m27.712-497.92c0-16.64-11.136-27.712-27.712-27.712h-387.2c-5.504 0-11.136-2.752-16.64-5.504l-149.376-107.904v85.76c0 16.576-11.072 27.648-27.712 27.648H179.968c-16.576 0-27.648 11.136-27.648 27.712V660.608c0 16.64 11.072 27.712 27.648 27.712h663.808c16.64 0 27.712-11.136 27.712-27.712v-414.912h0.128z"  horiz-adv-x="1024" />
      
      <glyph glyph-name="ziyuan" unicode="&#58959;" d="M860.608 594.56L631.68 815.104a57.408 57.408 0 0 1-40 16L232 832s-85.76-5.632-85.76-84.032v-727.936S149.952-64 231.936-64h560s85.76 3.968 85.76 84.032V554.56a55.68 55.68 0 0 1-17.152 39.936zM632.832 736.832l150.016-145.664h-121.472s-28.672 1.28-28.672 27.968c0.128 26.752 0.128 117.696 0.128 117.696z m187.776-716.8c0-28.096-28.608-27.968-28.608-27.968h-560c-26.752 0-28.672 28.032-28.672 28.032V748.096c0 26.112 28.672 27.968 28.672 27.968h343.68v-156.736c0-77.632 85.76-84.032 85.76-84.032h159.168v-515.2zM329.664 426.88c0-15.552 12.864-28.032 28.672-28.032h308.736a28.416 28.416 0 0 1 28.672 27.968c0 15.424-12.864 28.032-28.672 28.032H358.4a28.416 28.416 0 0 1-28.672-28.032z m337.408-113.344H358.4a28.416 28.416 0 0 1-28.672-28.032c0-15.36 12.864-28.032 28.672-28.032h308.736a28.416 28.416 0 0 1 28.672 28.032c0 15.36-12.864 28.032-28.672 28.032z m0-141.376H358.4a28.416 28.416 0 0 1-28.672-27.968c0-15.424 12.864-28.032 28.672-28.032h308.736a28.416 28.416 0 0 1 28.672 28.032c0 15.36-12.864 27.968-28.672 27.968z"  horiz-adv-x="1024" />
      
      <glyph glyph-name="qiehuan" unicode="&#58958;" d="M193.472 471.488h636.8a33.408 33.408 0 0 1 31.168 20.8 33.28 33.28 0 0 1-7.04 36.288l-200.96 200.96a33.088 33.088 0 0 1-47.232 0 33.024 33.024 0 0 1 0-47.168l143.872-143.872H193.92a33.664 33.664 0 0 1-13.184-64.448c4.032-1.728 8.384-2.56 12.8-2.56z m636.8-208h-636.8a33.408 33.408 0 0 1-23.552-57.088l167.424-167.936a33.024 33.024 0 0 1 47.168 0 33.088 33.088 0 0 1 0 47.168l-110.336 110.4h556.16a33.664 33.664 0 0 1 33.472 33.472 34.048 34.048 0 0 1-33.536 33.984z"  horiz-adv-x="1024" />
      
      <glyph glyph-name="yiximie" unicode="&#58956;" d="M584.576-64.256c0-17.536-26.944-31.744-51.84-31.744h-41.408c-24.96 0-51.84 14.208-51.84 31.744l0.128 2.88h144.768l0.192-2.88z m12.16 83.648a31.808 31.808 0 0 0 0-63.552H427.328a31.808 31.808 0 0 0 0 63.552h169.28z m-9.92 80.128a29.12 29.12 0 0 1 15.36-0.64 31.744 31.744 0 0 0-5.504-62.848H427.392a31.808 31.808 0 0 0 0 63.488h159.424zM376.832 826.112l178.432-220.992-165.824-144.128 10.624-20.352 166.72-320.96H426.688a73.856 73.856 0 0 0-73.856 73.792v2.688c0 8.96-0.576 44.608-5.888 72.832-1.088 5.76-4.672 13.12-12.16 22.592-7.36 9.408-18.112 20.416-30.336 33.28-24.512 25.856-54.912 59.968-74.88 110.4-13.312 33.6-21.888 74.24-21.888 123.648a303.744 303.744 0 0 0 166.4 271.36 29.248 29.248 0 0 1 2.752-4.16zM512.768 864c9.856 0 19.392-0.64 28.48-1.536h0.192l2.688-0.32c18.496-1.92 36.8-5.504 54.592-10.624L621.504 844.8l-0.256-1.408a305.92 305.92 0 0 0 133.44-100.736c38.656-51.008 61.632-114.816 61.568-183.68 0.064-64.96-14.72-114.688-35.52-153.216-20.672-38.592-46.72-65.664-67.2-87.168-13.632-14.336-24.704-26.176-30.528-35.712a40.32 40.32 0 0 1-5.888-13.952c-5.312-28.224-5.952-64-5.952-72.96v-2.496c0-31.104-19.2-57.6-46.464-68.48a29.056 29.056 0 0 1-3.072 15.744L462.4 447.168l152.384 132.352 21.312 18.432L430.336 852.864c16.064 4.416 32.64 7.552 49.536 9.28L482.56 862.464h0.192A300.8 300.8 0 0 0 511.232 864h1.536z"  horiz-adv-x="1024" />
      
      <glyph glyph-name="ximie" unicode="&#58957;" d="M816.256 558.976a303.104 303.104 0 0 1-61.568 183.68c-33.92 44.928-80 80.064-133.44 100.736L621.504 844.8 598.72 851.52a310.336 310.336 0 0 1-54.592 10.624L541.44 862.464h-0.192A300.16 300.16 0 0 1 512.704 864H511.36c-9.92 0-19.456-0.64-28.544-1.536H482.56L479.872 862.08c-18.624-1.92-36.928-5.504-54.592-10.624l-22.08-6.4 0.256-1.472a306.368 306.368 0 0 1-134.144-100.928 303.744 303.744 0 0 1-61.632-183.744c0-49.472 8.576-90.112 21.824-123.712 19.968-50.496 50.432-84.544 74.88-110.4 12.288-12.864 23.04-23.872 30.4-33.28 7.488-9.472 11.072-16.768 12.16-22.592 5.312-28.16 5.824-63.808 5.824-72.832v-2.624c0-40.832 33.088-73.792 73.856-73.856h170.752c40.832 0 73.856 33.088 73.856 73.856v2.496c-0.064 8.96 0.512 44.672 5.888 72.96a40.256 40.256 0 0 0 5.888 13.888c5.824 9.536 16.896 21.376 30.592 35.712 20.48 21.504 46.464 48.64 67.2 87.168 20.736 38.528 35.584 88.32 35.456 153.216z m-69.76-104.768c-16.256-41.152-40.768-68.992-64.384-93.888-11.776-12.48-23.296-24.064-33.408-36.928-9.984-12.672-18.88-27.136-22.272-44.864a491.968 491.968 0 0 1-6.784-82.56v-2.432a22.272 22.272 0 0 0-22.272-22.336H426.688a22.144 22.144 0 0 0-22.272 22.336v2.56c-0.064 10.752-0.384 47.808-6.848 82.432a91.648 91.648 0 0 1-12.8 31.552c-10.24 16.256-23.424 29.696-36.992 44.096-20.48 21.376-42.24 44.48-59.072 75.968-16.896 31.488-29.376 71.552-29.44 128.768 0 57.472 19.008 110.144 51.2 152.64a254.336 254.336 0 0 0 129.536 90.176l6.4 1.92c12.672 3.264 25.6 5.824 38.912 7.232h0.064l2.496 0.256c7.808 0.768 15.36 1.28 22.848 1.28l1.28-0.128 1.408 0.128c7.424 0 15.04-0.512 22.784-1.28h-0.064l2.56-0.256c13.248-1.408 26.24-3.904 38.784-7.232l6.528-1.92a254.336 254.336 0 0 0 129.6-90.176c32.128-42.496 51.072-95.168 51.072-152.64 0-43.584-7.296-77.248-18.176-104.704z m-149.76-354.752H427.264a31.744 31.744 0 0 1 0-63.488h169.344a31.808 31.808 0 0 1 0 63.488z m0-80.064H427.264a31.744 31.744 0 0 1 0-63.488h169.344a31.744 31.744 0 0 1 0 63.488zM439.552-61.44l-0.192-2.88c0-17.536 26.944-31.744 51.84-31.744h41.408c24.96 0 51.84 14.208 51.84 31.744l-0.128 2.88H439.68zM581.312 610.944l11.392-18.496-120.64-136.704 111.552-280.192-27.072-10.88-27.2-10.752-124.8 313.472 11.84 13.44 103.808 117.76-125.056 202.176 49.6 30.784 136.576-220.608z"  horiz-adv-x="1024" />
      
      <glyph glyph-name="dianjipinglun" unicode="&#58955;" d="M510.912 850.368c256.96 0 465.92-209.024 465.92-465.92s-208.96-465.92-465.92-465.92H44.992v465.92c0 256.896 209.024 465.92 465.92 465.92zM307.904 270.912a30.72 30.72 0 0 1 0-61.44h253.888a30.72 30.72 0 0 1 0 61.44H307.904z m-1.92 203.712a30.72 30.72 0 1 1 0-61.44h413.184a30.784 30.784 0 0 1 0 61.44H305.92z"  horiz-adv-x="1024" />
      
      <glyph glyph-name="pinglun" unicode="&#58954;" d="M510.912-81.472H44.992v465.92c0 256.896 209.024 465.92 465.92 465.92 256.96 0 465.92-209.024 465.92-465.92s-208.96-465.92-465.92-465.92z m-404.48 61.44h404.48a404.928 404.928 0 0 1 404.48 404.48 404.928 404.928 0 0 1-404.48 404.48 404.928 404.928 0 0 1-404.48-404.48v-404.48zM719.232 413.184H305.92a30.72 30.72 0 1 0 0 61.44h413.312a30.72 30.72 0 1 0 0-61.44z m-157.44-203.712H307.84a30.72 30.72 0 1 0 0 61.44h253.888a30.72 30.72 0 1 0 0-61.44z"  horiz-adv-x="1024" />
      
      <glyph glyph-name="Frame-1" unicode="&#58952;" d="M604.822588 68.668235H420.864a25.057882 25.057882 0 0 1-24.877176-24.937411 24.937412 24.937412 0 0 1 24.877176-24.937412h183.958588a26.081882 26.081882 0 0 1 26.142118 24.937412 24.937412 24.937412 0 0 1-26.142118 24.937411z m-141.191529-130.590117a47.104 47.104 0 0 1 48.24847-39.514353 48.670118 48.670118 0 0 1 48.248471 39.574588 58.127059 58.127059 0 0 1 56.621176 57.705412H406.949647a59.753412 59.753412 0 0 1 56.621177-57.705412zM511.879529 718.305882a34.816 34.816 0 0 1 34.394353 32.888471V827.873882a34.394353 34.394353 0 1 1-68.788706 0v-76.739764a34.816 34.816 0 0 1 34.394353-32.888471z m-225.882353-47.826823a32.406588 32.406588 0 0 1 28.069648-13.492706 39.574588 39.574588 0 0 1 20.178823 5.541647 32.406588 32.406588 0 0 1 7.890824 46.320941L295.875765 770.108235a36.382118 36.382118 0 0 1-48.248471 7.890824 32.828235 32.828235 0 0 1-8.31247-46.260706l46.682352-61.319529z m-85.052235-109.628235l-76.378353 22.949647a36.382118 36.382118 0 0 1-44.694588-20.961883 33.611294 33.611294 0 0 1 22.166588-42.345412l76.739765-23.311058h12.227765a34.816 34.816 0 0 1 32.466823 22.889411 33.611294 33.611294 0 0 1-22.528 42.405647v-1.626352z m718.426353-223.11153l-76.739765 23.371294a36.382118 36.382118 0 0 1-44.333176-21.383529 33.731765 33.731765 0 0 1 22.166588-42.345412l76.739765-22.889412a23.009882 23.009882 0 0 1 10.24 0 34.093176 34.093176 0 0 1 32.105412 22.889412 30.900706 30.900706 0 0 1-20.178824 42.345412v-1.987765zM180.705882 361.773176l-76.378353-23.311058a33.611294 33.611294 0 0 1-22.528-42.345412 34.816 34.816 0 0 1 32.406589-22.889412h10.300235l76.378353 22.889412a33.611294 33.611294 0 0 1 22.528 42.345412 34.394353 34.394353 0 0 1-42.767059 21.383529v1.987765z m651.986824 134.565648c3.192471-0.963765 6.625882-0.963765 9.878588 0l76.739765 23.311058a33.249882 33.249882 0 0 1 22.166588 42.345412 35.599059 35.599059 0 0 1-44.333176 20.961882l-76.739765-22.889411a33.611294 33.611294 0 0 1-22.166588-42.345412 39.574588 39.574588 0 0 1 34.454588-22.949647v1.566118z m-102.881882 274.55247l-46.320942-61.319529a30.960941 30.960941 0 0 1 7.951059-46.260706c6.083765-3.614118 13.071059-5.541647 20.178824-5.541647a32.466824 32.466824 0 0 1 28.069647 13.43247l46.682353 61.31953a31.322353 31.322353 0 0 1-8.312471 46.260706 34.032941 34.032941 0 0 1-48.24847-7.890824z m-217.99153-103.604706A244.495059 244.495059 0 0 1 261.421176 429.778824c0.240941-53.368471 18.793412-105.050353 52.645648-146.371765 29.033412-35.779765 55.476706-73.547294 79.149176-113.121883v-79.149176H621.025882v76.8c25.419294 39.936 53.127529 78.366118 83.064471 115.049412 34.334118 40.96 52.946824 92.943059 52.224 146.371764a239.254588 239.254588 0 0 1-246.061177 237.44753l1.566118 0.361412z m-44.333176-107.64047A90.172235 90.172235 0 0 1 374.663529 472.967529a14.275765 14.275765 0 0 0-28.069647 0 118.663529 118.663529 0 0 0 121.072942 115.531295 13.432471 13.432471 0 0 0 13.854117-13.432471 13.854118 13.854118 0 0 0-13.854117-15.420235z"  horiz-adv-x="1024" />
      
      <glyph glyph-name="Frame" unicode="&#58953;" d="M290.213647 633.675294c11.444706 14.456471 24.033882 27.828706 37.767529 39.81553L259.794824 741.797647a27.407059 27.407059 0 1 1-38.851765-38.791529l69.270588-69.270589zM512 743.363765h0.783059c9.035294 0 17.950118-0.602353 26.684235-1.445647V834.861176a27.467294 27.467294 0 0 1-54.814118 0v-92.943058c8.673882 0.903529 17.588706 1.445647 26.624 1.445647H512z m221.906824-109.628236l69.150117 69.210353a27.407059 27.407059 0 1 1-38.851765 38.79153l-68.246588-68.246588c13.854118-11.986824 26.443294-25.359059 37.948236-39.755295zM222.810353 439.115294c0 13.251765 1.084235 26.202353 2.590118 39.032471h-97.581177a27.467294 27.467294 0 0 1 0-54.874353h95.352471a365.086118 365.086118 0 0 0-0.361412 15.841882z m673.370353 39.032471h-97.581177a318.464 318.464 0 0 0 2.349177-54.874353h95.171765a27.407059 27.407059 0 0 1 0 54.814117z m-147.877647-224.918589a428.272941 428.272941 0 0 0-34.334118-43.309176l50.236235-50.236235a27.467294 27.467294 0 0 1 38.851765 38.851764l-54.753882 54.693647z m-527.36-54.753882a27.467294 27.467294 0 0 1 38.851765-38.791529l50.236235 50.29647a429.056 429.056 0 0 0-34.334118 43.188706l-54.753882-54.633412z m542.238117 240.64c0 56.922353-18.913882 109.507765-50.898823 151.672471a252.385882 252.385882 0 0 1-110.110118 83.124706l0.240941 1.204705-18.793411 5.481412a256 256 0 0 1-45.116236 8.794353l-2.16847 0.240941h-0.180706a247.567059 247.567059 0 0 1-23.491765 1.264942h-1.204706c-8.252235 0-16.082824-0.602353-23.612235-1.264942h-0.120471l-2.228705-0.240941a254.795294 254.795294 0 0 1-45.056-8.794353l-18.191059-5.300706 0.180706-1.204706a252.867765 252.867765 0 0 1-110.712471-83.305411c-31.924706-42.164706-50.838588-94.750118-50.838588-151.672471 0-40.779294 7.047529-74.330353 18.010353-102.098823 16.444235-41.682824 41.562353-69.812706 61.801412-91.136 10.119529-10.601412 19.034353-19.696941 25.057882-27.467295 6.144-7.830588 9.155765-13.854118 9.999059-18.672941 4.397176-23.250824 4.818824-52.645647 4.818823-60.114823v-2.168471c0-33.671529 27.346824-60.837647 61.018353-60.897882H582.475294c33.731765 0 60.958118 27.286588 60.958118 60.897882v2.108235c0 7.408941 0.481882 36.864 4.818823 60.235295a33.249882 33.249882 0 0 0 4.879059 11.444705c4.818824 7.830588 13.974588 17.648941 25.298824 29.455059 16.865882 17.769412 38.369882 40.116706 55.41647 71.981177 17.106824 31.804235 29.394824 72.884706 29.334588 126.433882z m-57.584941-86.437647c-13.432471-33.972706-33.671529-56.922353-53.127529-77.522823-9.758118-10.300235-19.275294-19.877647-27.648-30.479059a86.317176 86.317176 0 0 1-18.371765-37.044706 405.985882 405.985882 0 0 1-5.541647-68.065883v-2.108235a18.371765 18.371765 0 0 0-18.432-18.371765H441.584941a18.311529 18.311529 0 0 0-18.371765 18.371765v2.168471c-0.060235 8.854588-0.301176 39.454118-5.662117 68.005647a75.595294 75.595294 0 0 1-10.541177 26.021647c-8.432941 13.492706-19.275294 24.576-30.539294 36.442353-16.865882 17.648941-34.816 36.743529-48.790588 62.644706-13.854118 26.021647-24.214588 59.090824-24.274824 106.375529 0 47.405176 15.661176 90.895059 42.224942 125.952a209.92 209.92 0 0 0 106.977882 74.390588l5.300706 1.626353c10.420706 2.710588 21.082353 4.818824 32.045176 6.02353h0.120471l1.987765 0.180706c6.445176 0.602353 12.709647 1.024 18.913882 1.024L512 648.252235h1.084235c6.144 0 12.468706-0.361412 18.853647-0.963764h-0.060235l2.108235-0.240942c11.023059-1.144471 21.684706-3.252706 32.045177-5.963294l5.421176-1.626353a209.92 209.92 0 0 0 106.917647-74.390588c26.503529-35.056941 42.164706-78.546824 42.164706-125.952 0-36.020706-6.023529-63.849412-14.998588-86.497882z m-123.663059-292.803765H442.127059a26.202353 26.202353 0 0 1 0-52.404706h139.745882a26.262588 26.262588 0 0 1 0 52.404706z m0-66.138353H442.127059a26.202353 26.202353 0 0 1 0-52.404705h139.745882a26.202353 26.202353 0 0 1 0 52.404705z m-57.645176-66.68047H452.306824c0-0.783059-0.180706-1.505882-0.180706-2.349177 0-14.456471 22.287059-26.202353 42.767058-26.202353h34.213648c20.600471 0 42.767059 11.745882 42.767058 26.202353l-0.12047 2.409412h-47.465412z"  horiz-adv-x="1024" />
      
      <glyph glyph-name="yidianzan" unicode="&#58950;" d="M241.904941-41.261176H150.588235c-36.141176 0-60.235294 24.094118-60.235294 54.211764v451.764706c0 30.117647 24.094118 54.211765 60.235294 54.211765h91.316706v-560.188235z m366.47153 843.294117c60.235294-6.023529 102.4-60.235294 96.37647-114.447059-12.047059-108.423529-30.117647-168.658824-30.117647-168.658823H813.176471c114.447059 0 126.494118-60.235294 120.470588-126.494118l-48.188235-289.129412c-12.047059-84.329412-36.141176-144.564706-126.494118-144.564705H314.066824V520.131765c28.792471 1.204706 63.849412 4.035765 77.462588 10.842353 18.070588 12.047059 42.164706 48.188235 72.282353 108.423529l36.141176 90.352941c18.070588 42.164706 48.188235 72.282353 96.376471 72.282353h12.047059z m165.948235-786.672941zM331.294118 464.715294a54.091294 54.091294 0 0 1 11.083294 0.180706A389.722353 389.722353 0 0 0 331.294118 464.775529z"  horiz-adv-x="1024" />
      
      <glyph glyph-name="weidianzan" unicode="&#58951;" d="M812.574118 518.927059h-138.541177s18.070588 60.235294 30.117647 168.658823c6.023529 54.211765-36.141176 108.423529-96.37647 114.447059h-12.047059c-48.188235 0-78.305882-30.117647-96.376471-72.282353l-36.141176-90.352941c-30.117647-60.235294-54.211765-96.376471-72.282353-108.423529-24.094118-12.047059-114.447059-12.047059-120.470588-12.047059h-120.470589c-36.141176 0-60.235294-24.094118-60.235294-54.211765v-451.764706c0-30.117647 24.094118-54.211765 60.235294-54.211764h608.376471c90.352941 0 114.447059 60.235294 126.494118 144.564705l48.188235 289.129412c6.023529 66.258824-6.023529 126.494118-120.470588 126.494118z m-542.117647-505.976471h-120.470589v451.764706h120.470589v-451.764706z m602.352941 385.505883l-48.188236-289.129412c-12.047059-54.211765-12.047059-96.376471-72.282352-96.376471h-421.647059v451.764706c42.164706 0 66.258824 6.023529 84.329411 18.070588 30.117647 12.047059 60.235294 60.235294 102.4 138.541177 24.094118 60.235294 36.141176 90.352941 42.164706 96.37647 6.023529 18.070588 18.070588 30.117647 42.164706 30.117647h6.02353c30.117647 0 42.164706-30.117647 42.164706-48.188235-12.047059-96.376471-30.117647-156.611765-30.117648-156.611765l-24.094117-78.305882h228.894117c18.070588 0 30.117647 0 42.164706-12.047059 12.047059-12.047059 6.023529-36.141176 6.02353-54.211764z"  horiz-adv-x="1024" />
      
      <glyph glyph-name="skins" unicode="&#59332;" d="M870 770H663.8c-17.4 0-32.9-11.9-37-29.3C614.3 687.9 567 650 512 650s-102.3 37.9-114.8 90.7c-4.1 17.4-19.5 29.3-37 29.3H154c-24.3 0-44-19.7-44-44v-252c0-24.3 19.7-44 44-44h75v-388c0-24.3 19.7-44 44-44h478c24.3 0 44 19.7 44 44V430h75c24.3 0 44 19.7 44 44V726c0 24.3-19.7 44-44 44z m-28-268H723v-432H301V502H182V698h153.3c28.2-71.2 97.5-120 176.7-120s148.5 48.8 176.7 120H842v-196z"  horiz-adv-x="1024" />
      
      <glyph glyph-name="AIshengcheng" unicode="&#58944;" d="M780.672 24.256V145.92a32 32 0 0 0 6.4 19.2 620.032 620.032 0 0 1 109.696 239.616c18.56 120.96-36.16 220.032-124.544 281.984-89.344 62.656-211.392 86.08-321.472 53.76a324.864 324.864 0 0 1-198.528-178.88 1029.568 1029.568 0 0 1-37.952-116.928 32.192 32.192 0 0 0-2.048-5.696 374.592 374.592 0 0 0-64.64-94.912c-13.248-18.368-20.096-33.6-21.12-45.504-0.768-8.768 1.28-18.304 13.888-29.568 27.072-13.696 55.744-24.192 85.376-30.976a32 32 0 0 0 24.96-31.232v-192.64h193.152a32 32 0 0 0 0-64H218.624a32 32 0 0 0-32 32v200.064a440 440 0 0 0-78.912 31.488 31.872 31.872 0 0 0-5.568 3.712c-29.632 24.32-42.24 54.528-39.424 86.784 2.56 29.44 17.792 56.512 33.92 78.528l2.56 3.2c21.952 23.168 40.128 49.6 54.08 78.336 10.88 41.344 24.128 82.112 39.808 121.92l0.512 1.152a388.736 388.736 0 0 0 238.08 214.208l0.64 0.192c129.664 38.208 272 10.752 376.64-62.592C914.368 665.28 983.04 543.232 960 394.24l-0.384-1.92a683.84 683.84 0 0 0-114.944-256.832v-111.36a32 32 0 0 0-64 0zM647.872 536.128h46.08v-304.256h-46.08V536.128zM447.296 536.128h52.8l117.184-304.256h-49.856L538.88 310.272H408.064l-28.544-78.4h-49.408l117.12 304.256z m-25.152-187.52H524.8l-50.24 137.6h-1.728l-50.688-137.6z"  horiz-adv-x="1024" />
      
      <glyph glyph-name="daoru" unicode="&#58945;" d="M130.368 64v96a32 32 0 0 0 64 0V64a96 96 0 0 1 96-96h512a96 96 0 0 1 96 96V704a96 96 0 0 1-96 96h-512a96 96 0 0 1-96-96v-96a32 32 0 0 0-64 0V704a160 160 0 0 0 160 160h512a160 160 0 0 0 160-160v-640a160 160 0 0 0-160-160h-512a160 160 0 0 0-160 160zM375.552 198.592a32 32 0 1 1 44.48-45.952l212.544 205.824a32.064 32.064 0 0 1 0.32 45.696L420.352 615.04a32 32 0 0 1-45.12-45.44l189.376-187.904-189.056-183.168zM93.632 352a32 32 0 0 0 0 64h448a32 32 0 0 0 0-64h-448z"  horiz-adv-x="1024" />
      
      <glyph glyph-name="daochu" unicode="&#58946;" d="M893.632 64v96a32 32 0 0 1-64 0V64a96 96 0 0 0-96-96h-512a96 96 0 0 0-96 96V704a96 96 0 0 0 96 96h512a96 96 0 0 0 96-96v-96a32 32 0 1 1 64 0V704a160 160 0 0 1-160 160h-512A160 160 0 0 1 61.632 704v-640a160 160 0 0 1 160-160h512a160 160 0 0 1 160 160zM577.856 198.592a32 32 0 1 1 44.48-45.952l212.608 205.824a32 32 0 0 1 0.32 45.696L622.656 615.04a32 32 0 0 1-45.12-45.44l189.44-187.904-189.12-183.168zM732.8 352a32 32 0 1 1 0 64h-448a32 32 0 0 1 0-64h448z"  horiz-adv-x="1024" />
      
      <glyph glyph-name="biyan" unicode="&#58947;" d="M930.048 523.648a30.72 30.72 0 0 1-5.696 39.936c-12.8 9.984-29.888 7.168-39.872-5.632-1.472-1.408-159.744-188.288-347.968-188.288-182.592 0-347.968 188.288-349.44 189.696a28.864 28.864 0 0 1-39.872 2.816 28.864 28.864 0 0 1-2.88-39.936c2.88-4.224 37.12-42.752 91.328-85.504L162.816 361.088a27.52 27.52 0 0 1 1.408-39.936c2.816-5.632 10.048-8.64 17.088-8.64a28.096 28.096 0 0 1 20.032 8.64l78.464 81.28c37.12-25.664 81.28-49.92 129.792-67.008l-29.888-101.312a28.608 28.608 0 0 1 20.032-35.712h8.64c12.8 0 24.256 8.576 27.072 21.44l29.888 101.312a394.88 394.88 0 0 1 71.296-7.168c24.256 0 48.512 2.816 71.232 7.168l29.952-99.904c2.816-12.8 15.616-21.44 27.072-21.44 2.816 0 5.632 0 7.168 1.408a28.672 28.672 0 0 1 20.032 35.712l-30.336 99.84A553.728 553.728 0 0 1 791.68 403.84l77.056-79.872c5.632-5.632 12.8-8.576 20.032-8.576a28.032 28.032 0 0 1 20.032 8.576 28.8 28.8 0 0 1 1.408 39.936l-72.704 75.648c58.24 42.752 92.608 84.096 92.608 84.096z"  horiz-adv-x="1024" />
      
      <glyph glyph-name="chahao" unicode="&#58948;" d="M723.136 127.488l-197.12 197.12-196.992-197.12a41.856 41.856 0 0 0-59.136 59.136l197.056 197.12-197.12 196.992a41.856 41.856 0 0 0 59.2 59.136l197.056-197.12 197.056 197.12a41.856 41.856 0 0 0 59.136-59.136l-197.12-197.056 197.12-197.056a41.856 41.856 0 0 0-59.136-59.136z"  horiz-adv-x="1024" />
      
      <glyph glyph-name="fuzhi" unicode="&#58949;" d="M749.376 810.88a32 32 0 0 0 32-32v-653.44a32 32 0 0 0-32-32H96a32 32 0 0 0-32 32V778.88a32 32 0 0 0 32 32h653.376zM128 157.44h589.376V746.88H128v-589.44zM274.624-42.88a32 32 0 0 0-32 32v163.328h64v-131.328H896V610.56h-131.328v64H928a32 32 0 0 0 32-32v-653.44a32 32 0 0 0-32-32H274.624z"  horiz-adv-x="1024" />
      
      <glyph glyph-name="shouqi" unicode="&#58931;" d="M278.528 231.552a32 32 0 0 0-45.056 45.44l261.76 259.456a32 32 0 0 0 45.44-0.512L791.04 276.48a32 32 0 0 0-45.952-44.48l-227.84 236.16-238.72-236.672z"  horiz-adv-x="1024" />
      
      <glyph glyph-name="shibai" unicode="&#58932;" d="M512.64 832.576a448.192 448.192 0 1 1 0.064-896.448 448.192 448.192 0 0 1 0 896.448z m178.048-581.76a31.36 31.36 0 1 0-44.48-44.48L512.896 339.712l-133.312-133.376a31.424 31.424 0 0 0-44.416 44.48L468.48 384.128 335.168 517.44a31.424 31.424 0 0 0 44.416 44.48l133.312-133.376 133.312 133.376a31.488 31.488 0 0 0 44.48-44.48L557.376 384.128l133.312-133.312z"  horiz-adv-x="1024" />
      
      <glyph glyph-name="shangchuanzhong" unicode="&#58902;" d="M171.52 716.608C246.528 779.264 360.192 842.688 512 842.688A457.728 457.728 0 0 0 970.688 384a458.816 458.816 0 0 0-341.76-443.52 32 32 0 0 0-16.256 61.888A394.88 394.88 0 0 1 906.624 384 393.728 393.728 0 0 1 512 778.688c-132.8 0-232.448-55.168-299.52-111.232a541.44 541.44 0 0 1-63.104-62.016h125.44a32 32 0 0 0 0-64h-189.44a32 32 0 0 0-32.064 32V768a32 32 0 0 0 64 0v-102.4a617.6 617.6 0 0 0 54.144 51.072zM85.248 416a32 32 0 0 0 32-32c0-17.536 1.216-34.688 3.328-51.584a32 32 0 1 0-63.36-8.32A462.08 462.08 0 0 0 53.248 384a32 32 0 0 0 32 32z m20.16-165.76a32 32 0 0 0 41.792-17.28c13.312-32.064 30.72-62.016 51.648-89.152a32 32 0 0 0-50.752-39.04 458.56 458.56 0 0 0-59.968 103.68 32 32 0 0 0 17.28 41.792z m121.472-185.216a32 32 0 0 0 44.864 5.824c27.328-20.992 57.344-38.336 89.152-51.584a32 32 0 0 0-24.512-59.072 458.24 458.24 0 0 0-103.68 59.968 32 32 0 0 0-5.824 44.928v-0.064z m197.632-99.968a32 32 0 0 0 35.84 27.584c16.896-2.176 34.112-3.328 51.584-3.328a32 32 0 1 0 0-64c-20.224 0-40.32 1.344-59.84 3.904a32 32 0 0 0-27.584 35.84z"  horiz-adv-x="1024" />
      
      <glyph glyph-name="mingming" unicode="&#58933;" d="M64 32v704A96 96 0 0 0 160 832H512a32 32 0 0 0 0-64H160a32 32 0 0 1-32-32v-704a32 32 0 0 1 32-32h704a32 32 0 0 1 32 32V384a32 32 0 0 0 64 0v-352a96 96 0 0 0-96-96h-704A96 96 0 0 0 64 32zM407.552 189.056a32 32 0 0 0-45.248 45.248l543.04 543.04a32 32 0 1 0 45.248-45.248l-543.04-543.04z"  horiz-adv-x="1024" />
      
      <glyph glyph-name="shanchu" unicode="&#58934;" d="M768.96 660.096H247.872V32a32 32 0 0 1 32-32h457.088a32 32 0 0 1 32 32V660.096zM609.152 832a32 32 0 0 0 0-64H412.48a32 32 0 1 0 0 64h196.672z m223.808-800a96 96 0 0 0-96-96H279.872a96 96 0 0 0-96 96V660.096h-47.104a32 32 0 0 0 0 64h750.528a32 32 0 0 0 0-64h-54.4V32zM387.712 186.176V473.92a32 32 0 0 0 64 0v-287.744a32 32 0 0 0-64 0zM572.288 186.176V473.92a32 32 0 0 0 64 0v-287.744a32 32 0 0 0-64 0z"  horiz-adv-x="1024" />
      
      <glyph glyph-name="liulan" unicode="&#58935;" d="M508.672 735.04A549.12 549.12 0 0 0 1024 375.552a548.864 548.864 0 0 0-508.608-342.592v64a484.672 484.672 0 0 1 439.168 279.808A484.992 484.992 0 0 1 528.192 670.72l-19.52 0.32a484.8 484.8 0 0 1-439.296-279.68 484.992 484.992 0 0 1 446.016-294.4v-64A549.12 549.12 0 0 0 0 392.512a548.928 548.928 0 0 0 508.672 342.528zM617.216 382.4a102.656 102.656 0 1 1-102.592-102.592v-64l-17.088 0.832A166.656 166.656 0 0 0 348.864 365.44l-0.896 17.024A166.656 166.656 0 0 0 514.624 549.12l17.024-0.896a166.656 166.656 0 0 0 149.568-165.76l-0.832-17.024a166.656 166.656 0 0 0-165.76-149.568v64c56.64 0 102.592 45.952 102.592 102.592z"  horiz-adv-x="1024" />
      
      <glyph glyph-name="piliangcaozuo" unicode="&#58936;" d="M749.184 331.328a26.368 26.368 0 0 0 0-52.736H432.96a26.368 26.368 0 0 0 0 52.736h316.224zM617.408 146.816a26.368 26.368 0 1 0-52.736 0V463.04a26.368 26.368 0 0 0 52.736 0v-316.16zM960 705.92a32 32 0 0 0 32-32V-64a32 32 0 0 0-32-32H222.08a32 32 0 0 0-32 32V673.92a32 32 0 0 0 32 32H960zM254.08-32H928V641.92H254.08V-32zM801.92 864a32 32 0 0 0 32-32v-184.512h-64V800H96v-673.92h152.512v-64H64a32 32 0 0 0-32 32V832A32 32 0 0 0 64 864h737.92z"  horiz-adv-x="1024" />
      
      <glyph glyph-name="shangchuan" unicode="&#58937;" d="M859.008 282.432a32 32 0 0 0 64 0V0a32 32 0 0 0-32-32H132.992a32 32 0 0 0-32 32V268.032a32 32 0 0 0 64 0v-236.096h694.016V282.432zM697.408 473.92a32 32 0 1 1 45.952 44.48L537.536 731.008a32 32 0 0 1-45.696 0.256L280.96 518.784a32 32 0 0 1 45.44-45.184l187.904 189.44 183.168-189.12zM544 192a32 32 0 0 0-64 0V640a32 32 0 1 0 64 0v-448z"  horiz-adv-x="1024" />
      
      <glyph glyph-name="kaichouti" unicode="&#58901;" d="M893.184 733.568a32 32 0 1 0 0-64h-704a32 32 0 0 0 0 64h704zM893.184 162.432a32 32 0 1 0 0-64h-704a32 32 0 0 0 0 64h704zM893.184 543.168a32 32 0 1 0 0-64h-384a32 32 0 0 0 0 64h384zM893.184 352.768a32 32 0 1 0 0-64h-384a32 32 0 1 0 0 64h384zM338.88 422.72a12.8 12.8 0 0 0 0-20.672l-156.16-114.176a12.8 12.8 0 0 0-20.352 10.304v228.48a12.8 12.8 0 0 0 20.352 10.24l156.16-114.176z"  horiz-adv-x="1024" />
      
      <glyph glyph-name="kongzhimianban" unicode="&#58938;" d="M960 787.456a32 32 0 0 0 32-32v-597.312a32 32 0 0 0-32-32H64a32 32 0 0 0-32 32V755.456a32 32 0 0 0 32 32h896zM96 190.144h832V723.456h-832v-533.312zM764.48 641.664a32 32 0 0 0 44.992-45.504L572.16 361.28a32 32 0 0 0-44.8-0.064l-91.136 88.96-168.448-166.272a32 32 0 0 0-45.056 45.568L413.632 517.76a32 32 0 0 0 44.864 0.128l90.88-88.96 215.104 212.672zM778.24 44.544a32 32 0 0 0 0-64H255.424a32 32 0 1 0 0 64h522.688z"  horiz-adv-x="1024" />
      
      <glyph glyph-name="jinzhichakan" unicode="&#58900;" d="M669.824 432.064c7.36-18.752 11.456-39.232 11.456-60.672l-0.896-17.024A166.72 166.72 0 0 0 514.56 204.8l-17.088 0.832a165.824 165.824 0 0 0-43.52 10.624l52.928 52.992c2.56-0.192 5.12-0.448 7.68-0.448 56.64 0 102.592 45.952 102.656 102.592 0 2.56-0.256 5.12-0.448 7.68l52.992 52.992zM531.712 537.152c17.28-1.792 33.792-6.336 49.152-12.992l-51.328-51.328a102.656 102.656 0 0 1-116.48-116.352l-51.2-51.328a165.376 165.376 0 0 0-12.992 49.216l-0.832 17.024A166.656 166.656 0 0 0 514.56 538.048l17.088-0.896zM845.952 608.192A550.144 550.144 0 0 0 1024 364.608a548.928 548.928 0 0 0-721.408-299.776l49.408 49.472a484.672 484.672 0 0 1 602.56 251.52 486.72 486.72 0 0 1-154.24 196.8l45.632 45.568z m-337.28 115.904c79.936 0 155.84-17.088 224.32-47.808l-48.896-48.96a482.56 482.56 0 0 1-155.904 32.384l-19.52 0.384a484.8 484.8 0 0 1-439.296-279.68 486.656 486.656 0 0 1 163.84-203.904l-45.76-45.696A550.144 550.144 0 0 0 0 381.44a548.928 548.928 0 0 0 508.672 342.592zM194.88-0.64a32 32 0 1 0-45.248 45.248L828.416 723.392a32 32 0 1 0 45.248-45.248L194.88-0.64z"  horiz-adv-x="1024" />
      
      <glyph glyph-name="jiebang" unicode="&#58940;" d="M494.208 15.808A247.744 247.744 0 0 0 143.808 366.08l88.576 88.576a32 32 0 0 0 45.248-45.248L189.12 320.896a183.744 183.744 0 1 1 259.84-259.84l88.576 88.576a32 32 0 1 0 45.248-45.248l-88.576-88.576z m385.984 736.32a247.808 247.808 0 0 0 0-350.336L791.68 313.216a32 32 0 1 0-45.248 45.248l88.576 88.576a183.808 183.808 0 0 1-259.84 259.84L486.528 618.368a32 32 0 0 0-45.248 45.248l88.576 88.512a247.744 247.744 0 0 0 350.336 0zM783.488 157.696a32 32 0 1 0-45.248-45.248L240.448 610.24a32 32 0 0 0 45.248 45.312l497.792-497.856z"  horiz-adv-x="1024" />
      
      <glyph glyph-name="huishouzhan" unicode="&#58941;" d="M512 864a264.32 264.32 0 0 0 264.32-264.32v-32H247.68v32A264.32 264.32 0 0 0 512 864z m0-64a200.32 200.32 0 0 1-197.76-168.32h395.52A200.32 200.32 0 0 1 512 800zM843.84 631.68a32.128 32.128 0 0 0 31.808-35.52l-73.728-663.68a32 32 0 0 0-31.808-28.48H253.824a32 32 0 0 0-31.808 28.48L148.352 596.16a32.064 32.064 0 0 0 31.808 35.52h663.68zM282.56-32h458.88l66.624 599.68H215.872l66.624-599.68zM933.76 632.32a32 32 0 0 0 0-64H90.24a32 32 0 0 0 0 64h843.52zM340.736 220.288a25.472 25.472 0 1 0 45.568-22.784h161.472a25.6 25.6 0 0 0 0-51.2H342.4a25.6 25.6 0 0 0-22.144 38.4l20.544 35.584z m214.848 151.68a25.6 25.6 0 0 0 34.88-9.344l102.784-177.92a25.6 25.6 0 0 0-22.208-38.4h-41.024a25.536 25.536 0 1 0-3.136 50.944L546.176 336.96a25.6 25.6 0 0 0 9.408 35.008z m-48.896 110.208c9.152 0 17.6-4.928 22.208-12.8l20.48-35.584a25.472 25.472 0 1 0-42.56-28.16L426.24 265.92a25.6 25.6 0 0 0-44.352 25.6l102.72 177.92 4.096 5.312a25.6 25.6 0 0 0 18.048 7.488z"  horiz-adv-x="1024" />
      
      <glyph glyph-name="bianji" unicode="&#58898;" d="M896 41.344a32 32 0 0 0 0-64H516.096a32 32 0 0 0 0 64H896zM575.68 825.344a61.696 61.696 0 0 0 81.152-2.176l222.08-204.16c25.664-23.68 26.688-64 2.112-88.832l-522.688-528.512a61.824 61.824 0 0 0-43.968-18.304H93.696a61.696 61.696 0 0 0-61.696 61.696v205.632c0 16.256 6.4 31.808 17.792 43.392L571.2 821.12l4.48 4.096zM96 249.728v-202.432h217.408l381.504 385.728-209.92 210.048L96 249.792zM529.984 688.64l209.92-209.92 93.888 94.848-218.688 201.088-85.12-86.016z"  horiz-adv-x="1024" />
      
      <glyph glyph-name="guanchouti" unicode="&#58899;" d="M893.184 733.568a32 32 0 0 0 0-64h-704a32 32 0 0 0 0 64h704zM893.184 162.432a32 32 0 0 0 0-64h-704a32 32 0 0 0 0 64h704zM893.184 543.168a32 32 0 0 0 0-64h-384a32 32 0 0 0 0 64h384zM893.184 352.768a32 32 0 0 0 0-64h-384a32 32 0 1 0 0 64h384zM171.328 422.72a12.8 12.8 0 0 1 0-20.672l156.16-114.176a12.8 12.8 0 0 1 20.352 10.304v228.48a12.8 12.8 0 0 1-20.352 10.24l-156.16-114.176z"  horiz-adv-x="1024" />
      
      <glyph glyph-name="gengduo" unicode="&#58942;" d="M328 617.472a32 32 0 0 0 45.44 45.056l259.392-261.76a32 32 0 0 0-0.512-45.44L372.992 104.96a32 32 0 0 0-44.544 45.952l236.16 227.84-236.608 238.72z"  horiz-adv-x="1024" />
      
      <glyph glyph-name="a-gengduo2" unicode="&#58943;" d="M127.04 384m-96 0a96 96 0 1 1 192 0 96 96 0 1 1-192 0ZM512 384m-96 0a96 96 0 1 1 192 0 96 96 0 1 1-192 0ZM896.96 384m-96 0a96 96 0 1 1 192 0 96 96 0 1 1-192 0Z"  horiz-adv-x="1024" />
      
      <glyph glyph-name="shuoming-2" unicode="&#58915;" d="M544 302.656a12.8 12.8 0 0 0-12.8-12.8h-38.4a12.8 12.8 0 0 0-12.8 12.8V595.2c0 7.04 5.76 12.8 12.8 12.8h38.4c7.04 0 12.8-5.76 12.8-12.8v-292.544zM544 192a32 32 0 1 0-64 0v13.056a32 32 0 0 0 64 0V192zM928 384A416 416 0 1 1 512-32v-64a480 480 0 1 0 0 960 480 480 0 0 0 0-960v64A416 416 0 0 1 928 384z"  horiz-adv-x="1024" />
      
      <glyph glyph-name="a-shuaxin2" unicode="&#58916;" d="M1008 384C1008 657.92 785.92 880 512 880 238.08 880 16 657.92 16 384c0-273.92 222.08-496 496-496v-16C229.216-128 0 101.216 0 384S229.216 896 512 896s512-229.216 512-512-229.216-512-512-512v16c273.92 0 496 222.08 496 496zM637.664 442.656h-51.008a10.656 10.656 0 1 1 0-21.344h64a21.312 21.312 0 0 1 21.344 21.312v64.032a10.656 10.656 0 1 1-21.344 0v-42.816a160.48 160.48 0 0 1-25.536 33.28A160 160 0 1 1 672 384a10.656 10.656 0 1 1-21.312 0.032 138.656 138.656 0 1 0-12.96 58.656z"  horiz-adv-x="1024" />
      
      <glyph glyph-name="xiangqing" unicode="&#58917;" d="M736 651.904a32 32 0 0 0 0-64H377.6a32 32 0 1 0 0 64h358.4zM288 651.904a32 32 0 1 0 0-64 32 32 0 0 0 0 64zM736 416a32 32 0 0 0 0-64H377.6a32 32 0 1 0 0 64h358.4zM288 416a32 32 0 1 0 0-64 32 32 0 0 0 0 64zM736 180.096a32 32 0 1 0 0-64H377.6a32 32 0 0 0 0 64h358.4zM288 180.096a32 32 0 1 0 0-64 32 32 0 0 0 0 64zM864 768a32 32 0 0 1-32 32H192a32 32 0 0 1-32-32v-768a32 32 0 0 1 32-32h640a32 32 0 0 1 32 32V768z m64-768a96 96 0 0 0-96-96H192A96 96 0 0 0 96 0V768A96 96 0 0 0 192 864h640A96 96 0 0 0 928 768v-768z"  horiz-adv-x="1024" />
      
      <glyph glyph-name="xinjianwenjianjia" unicode="&#58918;" d="M288 792.448a32 32 0 0 0 17.92-5.504l103.872-70.4H960a32 32 0 0 0 32-32v-199.168a32 32 0 0 0-32-32H64a32 32 0 0 0-32 32V760.448a32 32 0 0 0 32 32h224z m-192-275.072h832V652.544H400a32 32 0 0 0-17.92 5.44L278.208 728.448H96v-211.072zM960 517.376a32 32 0 0 0 32-32v-477.824a32 32 0 0 0-32-32H64a32 32 0 0 0-32 32V485.376a32 32 0 0 0 32 32h896zM96 39.552h832V453.376h-832v-413.824zM631.488 276.352a29.888 29.888 0 1 0 0-59.776H392.512a29.888 29.888 0 0 0 0 59.776h238.976zM541.888 127.04a29.888 29.888 0 1 0-59.776 0V365.952a29.888 29.888 0 1 0 59.776 0v-238.912z"  horiz-adv-x="1024" />
      
      <glyph glyph-name="shoucang" unicode="&#58919;" d="M726.016-44.032c-15.104 0-30.464 3.584-44.544 11.008l-168.448 88.576a11.392 11.392 0 0 1-10.752 0l-168.448-88.576a94.848 94.848 0 0 0-100.352 7.168 94.592 94.592 0 0 0-37.888 93.184l32.256 187.648a10.88 10.88 0 0 1-3.328 10.24L88.32 398.08a95.04 95.04 0 0 0-24.064 97.792A94.144 94.144 0 0 0 141.312 560.64l188.416 27.392a10.88 10.88 0 0 1 8.704 6.4l84.224 170.752a94.72 94.72 0 0 0 85.504 53.248c36.608 0 69.376-20.48 85.504-53.248l84.224-170.752a11.84 11.84 0 0 1 8.704-6.4l188.416-27.392a95.36 95.36 0 0 0 52.992-162.56l-136.96-132.864a10.88 10.88 0 0 1-3.328-10.24l32.256-187.648a94.912 94.912 0 0 0-37.888-93.184 96.32 96.32 0 0 0-56.064-18.176zM507.648 756.736a33.408 33.408 0 0 1-30.464-18.944L392.96 567.04a73.088 73.088 0 0 0-55.04-39.936l-188.416-27.392a33.152 33.152 0 0 1-27.392-23.04 33.344 33.344 0 0 1 8.704-34.816l136.192-132.864c17.152-16.896 25.088-40.96 20.992-64.768L256 57.088a33.28 33.28 0 0 1 13.568-33.28 33.28 33.28 0 0 1 35.584-2.56L473.6 109.824a72.832 72.832 0 0 0 68.096 0l168.448-88.576c11.776-6.144 25.088-5.12 35.584 2.56a33.6 33.6 0 0 1 13.568 33.28l-32.256 187.648c-4.096 23.808 3.84 47.872 20.992 64.768l136.192 132.864a33.92 33.92 0 0 1-18.688 57.856l-188.16 27.136a73.664 73.664 0 0 0-55.04 39.936L538.112 738.048a33.216 33.216 0 0 1-30.464 18.688z"  horiz-adv-x="1024" />
      
      <glyph glyph-name="shuoming-1" unicode="&#58921;" d="M928 384A416 416 0 1 1 512-32v-32A448 448 0 1 0 512 832a448 448 0 0 0 0-896v32A416 416 0 0 1 928 384zM462.08 227.968h103.424V128H462.016v99.968z m171.776 375.232C598.784 627.712 556.8 640 504.128 640c-38.592 0-71.936-8.768-99.968-26.304-42.048-28.032-64.896-73.6-68.352-138.496h99.904c0 19.264 5.248 36.8 15.808 54.336 10.496 17.536 29.824 26.24 56.128 26.24 26.24 0 45.568-6.976 56.064-20.992 10.56-14.016 15.808-29.824 15.808-47.36 0-15.744-5.248-29.76-14.08-42.048-5.248-7.04-12.224-14.08-19.2-21.056l-24.576-19.264c-24.576-19.328-40.32-36.864-45.632-50.88-5.248-14.016-8.768-42.048-10.496-80.64h92.928c0 17.536 1.728 31.552 5.248 40.32 3.52 14.08 12.288 26.304 26.304 36.8l24.576 19.328c24.512 19.264 42.048 35.072 50.816 47.36 14.08 20.992 22.784 45.568 22.784 75.392-3.456 49.088-19.2 84.16-54.336 110.464z"  horiz-adv-x="1024" />
      
      <glyph glyph-name="xiaoxitixing" unicode="&#58922;" d="M512 384m-448 0a448 448 0 1 1 896 0 448 448 0 1 1-896 0ZM519.168 640.512c46.464 0 84.736-13.376 114.752-40.128 30.08-27.2 45.056-62.656 45.056-106.304 0-43.2-16.448-82.56-49.28-118.272-19.2-20.16-53.952-47.168-104.192-80.96-63.808-42.688-100.48-81.216-109.824-115.456h264V128H344.576c0 46.464 16.64 88 49.984 124.608 21.568 24.384 57.984 54.208 109.12 89.408 39.872 28.608 66.176 49.536 78.848 62.656 25.792 28.16 38.72 58.24 38.72 90.112 0 30.528-9.152 54.208-27.456 71.104-18.304 16.896-43.904 25.344-76.736 25.344-35.2 0-61.696-11.712-79.552-35.2-20.16-23.04-30.528-56.576-30.976-100.672H348.8c0 55.872 15.744 100.672 47.168 134.464 30.976 33.792 72.064 50.688 123.2 50.688z"  horiz-adv-x="1024" />
      
      <glyph glyph-name="shuoming" unicode="&#58923;" d="M960 384A448 448 0 1 0 64 384a448 448 0 0 0 896 0zM928 384A416 416 0 1 1 512-32v-32A448 448 0 1 0 512 832a448 448 0 0 0 0-896v32A416 416 0 0 1 928 384zM462.08 227.968h103.424V128H462.016v99.968z m171.776 375.232C598.784 627.712 556.8 640 504.128 640c-38.592 0-71.936-8.768-99.968-26.304-42.048-28.032-64.896-73.6-68.352-138.496h99.904c0 19.264 5.248 36.8 15.808 54.336 10.496 17.536 29.824 26.24 56.128 26.24 26.24 0 45.568-6.976 56.064-20.992 10.56-14.016 15.808-29.824 15.808-47.36 0-15.744-5.248-29.76-14.08-42.048-5.248-7.04-12.224-14.08-19.2-21.056l-24.576-19.264c-24.576-19.328-40.32-36.864-45.632-50.88-5.248-14.016-8.768-42.048-10.496-80.64h92.928c0 17.536 1.728 31.552 5.248 40.32 3.52 14.08 12.288 26.304 26.304 36.8l24.576 19.328c24.512 19.264 42.048 35.072 50.816 47.36 14.08 20.992 22.784 45.568 22.784 75.392-3.456 49.088-19.2 84.16-54.336 110.464z"  horiz-adv-x="1024" />
      
      <glyph glyph-name="shangsheng" unicode="&#58924;" d="M145.408 122.88c-19.797333 0-35.84 3.754667-48.128 11.264a54.613333 54.613333 0 0 0-24.576 29.696 71.338667 71.338667 0 0 0 0 41.472c4.096 15.36 12.970667 30.549333 26.624 45.568 55.296 61.44 108.544 121.514667 159.744 180.224 51.2 58.709333 100.693333 113.664 148.48 164.864a141.141333 141.141333 0 0 0 99.328 43.52c18.432 0.341333 36.181333-2.56 53.248-8.704s31.402667-15.701333 43.008-28.672c26.624-29.354667 54.272-59.392 82.944-90.112l88.064-92.16c28.672-30.72 57.173333-60.928 85.504-90.624 28.330667-29.696 54.784-58.538667 79.36-86.528 11.605333-12.970667 19.114667-26.453333 22.528-40.448a66.304 66.304 0 0 0-1.024-38.4 56.149333 56.149333 0 0 0-23.552-28.672 81.664 81.664 0 0 0-45.056-11.264c-23.893333 0-56.832-0.170667-98.816-0.512-41.984-0.341333-87.893333-0.512-137.728-0.512H145.408z"  horiz-adv-x="1024" />
      
      <glyph glyph-name="wodexiaoxi" unicode="&#58925;" d="M808.32 382.4a296.128 296.128 0 1 1-592.192 0v-208h592.192v208z m64-272H152.128v272a360.128 360.128 0 0 0 360.128 360.128l18.496-0.448a360.128 360.128 0 0 0 341.568-359.68v-272zM470.528 794.368a41.472 41.472 0 1 0 82.944 0v-64.384H470.528V794.368zM553.408 729.984H470.528V794.368a41.472 41.472 0 0 0 82.88 0v-64.384zM938.752 174.4a32 32 0 1 0 0-64H85.248a32 32 0 0 0 0 64h853.504zM369.088 110.208a145.984 145.984 0 0 1 291.968 0h64a209.92 209.92 0 1 0-419.968 0h64z"  horiz-adv-x="1024" />
      
      <glyph glyph-name="yishoucang" unicode="&#58926;" d="M748.224-64c-12.992 0-27.776 3.584-41.28 10.752L512.128 44.16l-196.16-97.408a86.656 86.656 0 0 0-41.28-10.304c-18.88 0-37.312 5.824-52.096 17.088a91.776 91.776 0 0 0-35.008 88.832l39.936 207.872L73.6 393.408c-23.744 24.256-32.768 58.88-23.744 91.584l0.448 0.896c11.2 33.664 39.04 57.024 72.704 61.504l213.696 39.04 95.616 194.816C447.488 812.224 478.912 832 512.128 832c34.56 0 66.88-20.672 80.384-51.2l95.616-194.368 213.632-37.248c33.664-4.928 61.952-29.184 71.36-62.4 10.816-32.32 1.792-67.776-22.4-92.032l-0.448-0.448-153.088-144.512 38.592-208.32a89.984 89.984 0 0 0-34.56-87.936 91.328 91.328 0 0 0-52.992-17.536z"  horiz-adv-x="1024" />
      
      <glyph glyph-name="yichu" unicode="&#58927;" d="M349.44 366.464a32 32 0 1 0 0 64h324.48a32 32 0 0 0 0-64H349.44zM896 384a384 384 0 1 1-384-384v-64A448 448 0 1 0 512 832a448 448 0 0 0 0-896v64a384 384 0 0 1 384 384z"  horiz-adv-x="1024" />
      
      <glyph glyph-name="wancheng" unicode="&#58928;" d="M64 384a448 448 0 1 0 896 0A448 448 0 0 0 64 384z m366.912-170.304a30.912 30.912 0 0 1 43.2-1.088l293.568 272.896a30.848 30.848 0 0 1-42.048 45.312L455.168 277.44 328.192 408.384a30.912 30.912 0 1 1-44.352-43.008l147.072-151.68z"  horiz-adv-x="1024" />
      
      <glyph glyph-name="shuaxin" unicode="&#58929;" d="M863.872 548.224h-142.848a29.888 29.888 0 1 1 0-59.712h179.264A59.712 59.712 0 0 1 960 548.16V727.488a29.888 29.888 0 1 1-59.712 0v-119.936a449.472 449.472 0 0 1-71.552 93.248A448 448 0 1 1 960 384a29.888 29.888 0 1 1-59.712 0 388.288 388.288 0 1 0-36.352 164.224z"  horiz-adv-x="1024" />
      
      <glyph glyph-name="xiajiang" unicode="&#58930;" d="M878.592 645.12c19.797333 0 35.84-3.754667 48.128-11.264a54.613333 54.613333 0 0 0 24.576-29.696 71.338667 71.338667 0 0 0 0-41.472c-4.096-15.36-12.970667-30.549333-26.624-45.568-55.296-61.44-108.544-121.514667-159.744-180.224-51.2-58.709333-100.693333-113.664-148.48-164.864a141.141333 141.141333 0 0 0-99.328-43.52 147.797333 147.797333 0 0 0-53.248 8.704 103.850667 103.850667 0 0 0-43.008 28.672C394.24 195.242667 366.592 225.28 337.92 256L249.856 348.16c-28.672 30.72-57.173333 60.928-85.504 90.624a2845.866667 2845.866667 0 0 0-79.36 86.528 94.549333 94.549333 0 0 0-22.528 40.448 66.304 66.304 0 0 0 1.024 38.4 56.149333 56.149333 0 0 0 23.552 28.672 81.664 81.664 0 0 0 45.056 11.264c23.893333 0 56.832 0.170667 98.816 0.512 41.984 0.341333 87.893333 0.512 137.728 0.512h509.952z"  horiz-adv-x="1024" />
      
      <glyph glyph-name="zaixiankefu" unicode="&#58905;" d="M209.472 317.12a63.424 63.424 0 0 1-126.784 0v-95.808a63.424 63.424 0 1 1 126.784 0V317.12z m64-95.808a127.488 127.488 0 0 0-254.784 0V317.12a127.36 127.36 0 0 0 254.784 0v-95.808zM941.376 317.12a63.424 63.424 0 0 1-126.848 0v-95.808a63.424 63.424 0 1 1 126.848 0V317.12z m64-95.808a127.488 127.488 0 0 0-254.848 0V317.12a127.36 127.36 0 0 0 254.848 0v-95.808zM501.056 40.832a25.6 25.6 0 0 1 0-51.2h57.856a25.6 25.6 0 0 1 0 51.2h-57.856z m57.856 64a89.6 89.6 0 0 0 0-179.2h-57.856a89.6 89.6 0 0 0 0 179.2h57.856zM792.96 152.192a32 32 0 1 0 46.976-43.52 436.864 436.864 0 0 0-206.08-124.928 32 32 0 0 0-16.768 61.76 372.864 372.864 0 0 1 175.872 106.688z m99.2 253.312a372.928 372.928 0 0 1-745.856 0 32 32 0 0 0-64 0 436.928 436.928 0 0 0 873.856 0 32 32 0 0 0-64 0z"  horiz-adv-x="1024" />
      
      <glyph glyph-name="shezhi" unicode="&#58903;" d="M963.806097 540.593703c-39.852074 0-73.947026 19.958021-93.84108 56.931534-19.894053 36.909545-19.894053 76.761619 0 110.856572 17.07946 28.401799 5.693153 68.189905-22.772613 85.269365L688.03998 887.492254C659.510245 904.507746 622.6007 893.185407 605.521239 864.655672c-19.830085-34.094953-53.989005-56.867566-93.777111-56.867566s-73.947026 19.894053-93.84108 56.931534C400.887556 893.121439 363.978011 904.443778 335.448276 887.428286L176.295852 793.651174c-28.465767-17.07946-36.973513-53.989005-22.772614-85.269365 19.894053-34.158921 19.894053-76.761619 0-110.92054-19.894053-34.094953-53.989005-56.867566-93.841079-56.867566C25.587206 540.593703 0 512.191904 0 478.096952v-190.496752c0-34.158921 25.587206-62.56072 59.682159-62.56072 39.852074 0 73.947026-19.894053 93.841079-56.867566 19.894053-34.094953 19.894053-76.761619 0-110.856572-8.507746-14.2009-11.386307-31.28036-5.693153-45.481259 2.878561-17.07946 14.2009-28.465767 28.465767-36.973513l159.152424-93.84108A54.82059 54.82059 0 0 1 363.978011-127.488256a59.874063 59.874063 0 0 1 51.174413 31.28036c19.894053 34.094953 53.989005 56.867566 93.841079 56.867566 39.788106 0 73.883058-19.894053 93.777112-56.931534 17.07946-28.401799 54.052974-39.724138 82.51874-22.708646L844.377811-25.13943c28.401799 17.07946 36.973513 53.989005 22.772614 85.269365a110.408796 110.408796 0 0 0 0 110.92054c19.830085 34.094953 53.989005 56.867566 93.777111 56.867566 34.158921 0 59.746127 28.401799 59.746127 62.496752V480.911544c2.814593 31.28036-22.772614 59.682159-56.931534 59.682159z m5.693153-250.114942a6.14093 6.14093 0 0 0-5.757121-5.757122c-59.682159 0-110.856572-31.28036-142.136932-85.269365-28.401799-53.989005-28.401799-116.549725 0-167.724138 0-2.878561 0-5.693153-2.814592-5.693153l-159.216392-96.655673c-2.814593 0-5.693153 0-5.693154 2.814593A158.448776 158.448776 0 0 1 511.744128 17.527236c-59.682159 0-110.856572-31.344328-142.136932-85.333333 0-2.814593-5.757121-2.814593-5.757121-2.814593L204.697651 23.156422l-2.814593 5.757121c28.401799 53.989005 28.401799 116.549725 0 167.724138A158.512744 158.512744 0 0 1 59.682159 281.907046a6.14093 6.14093 0 0 0-5.693154 5.693154V478.096952c0 2.814593 2.878561 5.693153 5.757122 5.693153 59.682159 0 110.856572 31.216392 142.136931 85.269365 31.216392 53.989005 28.401799 116.549725 0 167.724138 0 2.878561 0 5.693153 2.814593 5.693154L363.914043 839.132434h2.814593s2.878561 0 2.87856-2.814593A158.448776 158.448776 0 0 1 511.744128 750.984508c59.682159 0 110.856572 31.344328 142.136931 85.333333 0 2.814593 2.878561 2.814593 5.757122 2.814593L818.790605 745.291354c2.814593 0 2.814593-5.629185 2.814592-5.629185-28.401799-54.052974-28.401799-116.613693 0-167.788106A158.512744 158.512744 0 0 1 963.806097 486.604698c2.814593 0 5.693153-2.814593 5.693153-5.693154v-190.496751zM511.744128 603.154423C395.194403 603.154423 298.538731 503.684158 298.538731 384.255872c0-119.428286 96.591704-218.898551 213.205397-218.898551 116.549725 0 213.205397 99.470265 213.205397 218.898551 0 122.242879-96.591704 218.898551-213.205397 218.898551z m0-380.929535c-88.147926 0-159.216392 73.883058-159.216392 162.030984s71.068466 162.030985 159.28036 162.030985c88.083958 0 159.152424-73.883058 159.152424-162.030985S599.892054 222.224888 511.744128 222.224888z"  horiz-adv-x="1024" />
      
      <glyph glyph-name="weihu" unicode="&#58904;" d="M611.84 727.04a184.064 184.064 0 0 1-17.408-78.72c0-49.28 19.136-95.36 53.952-130.176a183.04 183.04 0 0 1 130.176-53.952c27.648 0 54.464 6.016 78.72 17.6a172.16 172.16 0 0 0-123.072-51.008c-12.16 0-24.256 1.344-36.032 3.712a57.984 57.984 0 0 1-52.864-15.68l-335.552-335.36a100.032 100.032 0 0 1-96.448 96.448l335.232 335.36a57.728 57.728 0 0 1 15.68 52.864 172.8 172.8 0 0 0 47.424 158.912h0.192z m58.56-505.664l184.32-184.32a26.176 26.176 0 1 0-37.056-37.056l-184.32 184.32 37.056 37.056z m40.576 611.648c-4.224 0-8.704-0.512-13.12-1.024a230.848 230.848 0 0 1-190.08-275.968L120.768 168.96a125.76 125.76 0 0 1 0-178.176 126.4 126.4 0 0 1 178.176 0l387.072 387.072a230.528 230.528 0 0 1 275.84 190.08c4.928 31.424-7.68 49.344-24.32 49.344-7.68 0-16-3.712-24.192-11.776l-46.08-46.08a126.592 126.592 0 0 0-178.368 0 125.952 125.952 0 0 0 0 178.368l46.08 46.08c23.04 22.848 11.648 49.28-24.064 49.152zM180.224 50.176c-26.624 26.624-7.168 71.68 29.696 71.68 36.864 0 56.64-45.056 29.888-71.68a42.24 42.24 0 0 0-59.584 0zM120.512 793.792l-59.584-59.392 74.24-104.128 62.272-32.768 145.792-145.728 59.392 59.392-145.408 145.92-32.768 62.272-103.936 74.432z m535.04-505.344L566.4 199.36a20.992 20.992 0 0 1 0-29.696l210.432-210.432a84.48 84.48 0 0 1 118.912 0 84.288 84.288 0 0 1 0 118.912L685.44 288.64a21.12 21.12 0 0 1-29.824-0.128z"  horiz-adv-x="1024" />
      
      <glyph glyph-name="zhankai" unicode="&#58906;" d="M745.536 536.448a32 32 0 0 0 44.992-45.44l-261.76-259.456a32 32 0 0 0-45.44 0.512L232.96 491.52a32 32 0 0 0 45.952 44.48l227.84-236.16 238.72 236.672z"  horiz-adv-x="1024" />
      
      <glyph glyph-name="xiazai" unicode="&#58907;" d="M859.008 282.432a32 32 0 0 0 64 0V0a32 32 0 0 0-32-32H132.992a32 32 0 0 0-32 32V268.032a32 32 0 0 0 64 0v-236.096h694.016V282.432zM697.408 475.008a32 32 0 1 0 45.952-44.48l-205.824-212.608a32 32 0 0 0-45.696-0.32L280.96 430.208a32 32 0 0 0 45.44 45.12l187.904-189.44 183.168 189.12zM544 320a32 32 0 0 0-64 0V768a32 32 0 1 0 64 0v-448z"  horiz-adv-x="1024" />
      
      <glyph glyph-name="zhuijia" unicode="&#58908;" d="M544 236.608a32 32 0 0 0-64 0V561.024a32 32 0 0 0 64 0v-324.48zM349.44 366.464a32 32 0 1 0 0 64h324.48a32 32 0 0 0 0-64H349.44zM896 384a384 384 0 1 1-384-384v-64A448 448 0 1 0 512 832a448 448 0 0 0 0-896v64a384 384 0 0 1 384 384z"  horiz-adv-x="1024" />
      
      <glyph glyph-name="yijianfankui" unicode="&#58909;" d="M665.344 795.264a32 32 0 0 0 0-64H136.96V-32h683.2V556.48a32 32 0 0 0 64 0V-64a32 32 0 0 0-32-32H104.96a32 32 0 0 0-32 32V763.264a32 32 0 0 0 32 32h560.384zM582.528 404.992a32 32 0 1 0-45.248 45.248l359.168 359.168a32 32 0 0 0 45.248-45.312L582.528 405.12zM441.088 529.728a32 32 0 0 0 0-64H220.48a32 32 0 1 0 0 64h220.608zM716.864 301.568a32 32 0 0 0 0-64H220.48a32 32 0 0 0 0 64h496.384z"  horiz-adv-x="1024" />
      
      <glyph glyph-name="weixin" unicode="&#58910;" d="M386.048 807.552c195.52 0 361.728-133.12 383.552-309.952C911.04 479.232 1024 369.536 1024 231.168c0-61.184-22.464-117.312-59.776-162.112a288 288 0 0 1 4.864-24.128c2.048-9.216 4.736-21.12 5.632-31.616 0.384-5.248 0.576-12.16-0.832-19.2a41.92 41.92 0 0 0-16-25.792 42.624 42.624 0 0 0-28.416-7.68 75.392 75.392 0 0 0-18.304 3.84 277.248 277.248 0 0 0-29.952 12.928c-9.92 4.736-17.664 8.448-23.936 10.752l-1.344 0.512a320.32 320.32 0 0 0-128.32-26.624c-115.968 0-219.136 61.44-267.456 152.832a426.56 426.56 0 0 0-74.112-6.528 418.048 418.048 0 0 0-171.008 36.16c-1.472-0.32-3.584-0.832-6.4-1.856-8.96-3.264-19.84-8.512-32.896-14.72-12.032-5.76-26.24-12.608-38.912-16.832a90.048 90.048 0 0 0-21.888-4.672 46.08 46.08 0 0 0-30.912 8.192 45.312 45.312 0 0 0-17.088 27.968 82.112 82.112 0 0 0-0.896 22.72c1.088 13.12 4.48 28.288 7.296 40.768 3.136 13.76 5.696 24.96 6.784 33.92 0.256 1.856 0.192 3.328 0.256 4.48C30.272 303.232 0 377.216 0 457.984c0 196.224 176.192 349.568 386.048 349.568z m341.568-371.264c-131.712 0-232.32-95.04-232.32-205.12s100.608-205.12 232.32-205.12a257.28 257.28 0 0 1 95.872 18.24l12.352 5.312 7.616 2.688a49.024 49.024 0 0 0 18.496 0.64c6.272-0.96 12.352-2.816 17.28-4.608 8.576-3.2 18.048-7.616 26.112-11.52a265.472 265.472 0 0 0-4.8 24.896c-0.64 5.12-1.088 11.52-0.384 17.92a44.224 44.224 0 0 0 10.496 25.152A189.44 189.44 0 0 1 960 231.168c0 110.08-100.672 205.12-232.32 205.12z m-341.568 307.2C204.864 743.552 64 612.48 64 458.048c0-66.24 25.472-127.552 68.864-176.448a48.576 48.576 0 0 0 11.392-27.712c0.768-7.488 0.192-15.104-0.64-21.568-1.6-12.928-5.12-27.968-7.872-40.192l-2.88-13.504c4.672 2.112 9.728 4.416 15.232 7.04 11.904 5.696 26.048 12.608 38.656 17.216 6.4 2.304 13.696 4.48 21.12 5.632a54.72 54.72 0 0 0 20.48-0.64l8.32-2.88 16.96-7.296a355.584 355.584 0 0 1 183.744-21.44 248.32 248.32 0 0 0-6.144 54.976c0 144.512 123.328 257.728 273.536 268.224-22.528 135.808-153.92 244.16-318.72 244.16z m242.112-424.064a40.32 40.32 0 1 0 0-80.512 40.32 40.32 0 0 0 0 80.512z m199.552 0a40.32 40.32 0 1 0-0.064-80.576 40.32 40.32 0 0 0 0 80.576zM237.888 608.64a53.888 53.888 0 1 0 0-107.712 53.888 53.888 0 0 0 0 107.712z m279.232 0a53.888 53.888 0 1 0 0.064-107.776 53.888 53.888 0 0 0 0 107.776z"  horiz-adv-x="1024" />
      
      <glyph glyph-name="zhankai2" unicode="&#58911;" d="M1008 384C1008 657.92 785.92 880 512 880 238.08 880 16 657.92 16 384c0-273.92 222.08-496 496-496v-16C229.216-128 0 101.216 0 384S229.216 896 512 896s512-229.216 512-512-229.216-512-512-512v16c273.92 0 496 222.08 496 496zM660.736 476.448a16 16 0 0 0 22.528-22.752l-163.52-162.144a16 16 0 0 0-22.816 0.256l-156.416 162.144a16 16 0 0 0 22.976 22.24l145.184-150.464 152.064 150.72z"  horiz-adv-x="1024" />
      
      <glyph glyph-name="xiangshang" unicode="&#58912;" d="M344.64 399.04a32 32 0 0 1 45.248 0.512l114.56 117.12 131.136-118.464a32 32 0 0 1 42.88 47.488L524.544 584.768a32 32 0 0 1-44.288-1.408L344.128 444.288a32 32 0 0 1 0.512-45.248zM544 531.392a32 32 0 0 1-64 0v-324.416a32 32 0 0 1 64 0v324.48zM896 384a384 384 0 1 0-384 384V832a448 448 0 1 1 0-896A448 448 0 0 1 512 832v-64a384 384 0 0 0 384-384z"  horiz-adv-x="1024" />
      
      <glyph glyph-name="yidong" unicode="&#58913;" d="M668.032 108.224a22.08 22.08 0 0 0 0-31.168l-140.416-140.48a22.08 22.08 0 0 0-31.232 0l-140.48 140.48a22.08 22.08 0 1 0 31.232 31.168l102.784-102.784V762.56L387.136 659.776a22.08 22.08 0 1 0-31.232 31.168l140.48 140.48a22.08 22.08 0 0 0 31.232 0l140.416-140.48a22.08 22.08 0 1 0-31.168-31.168L534.08 762.56v-757.12l102.784 102.784a22.08 22.08 0 0 0 31.168 0zM236.224 227.968a22.08 22.08 0 0 0-31.168 0L64.576 368.384a22.08 22.08 0 0 0 0 31.232l140.48 140.416a22.08 22.08 0 1 0 31.168-31.168L133.44 406.08h757.12L787.776 508.8a22.08 22.08 0 1 0 31.168 31.168l140.48-140.416a22.08 22.08 0 0 0 0-31.232l-140.48-140.416a22.08 22.08 0 1 0-31.168 31.168l102.784 102.784H133.44l102.784-102.784a22.08 22.08 0 0 0 0-31.168z"  horiz-adv-x="1024" />
      
      <glyph glyph-name="xiangxia" unicode="&#58914;" d="M344.64 368.96a32 32 0 0 0 45.248-0.512l114.56-117.12 131.136 118.464a32 32 0 0 0 42.88-47.488l-153.92-139.072a32 32 0 0 0-44.288 1.408L344.128 323.712a32 32 0 0 0 0.512 45.248zM544 236.608a32 32 0 0 0-64 0V561.024a32 32 0 0 0 64 0v-324.48zM896 384a384 384 0 1 1-384-384v-64A448 448 0 1 0 512 832a448 448 0 0 0 0-896v64a384 384 0 0 1 384 384z"  horiz-adv-x="1024" />
      
    </font>
</defs>
</svg>
